<?xml version="1.0" standalone="no"?>
<!DOCTYPE svg PUBLIC "-//W3C//DTD SVG 1.1//EN" "http://www.w3.org/Graphics/SVG/1.1/DTD/svg11.dtd" >
<svg xmlns="http://www.w3.org/2000/svg" xmlns:xlink="http://www.w3.org/1999/xlink" version="1.1">
<metadata>
Created by FontForge 20161003 at Thu Dec 12 10:34:18 2019
 By www-data
Copyright (c) 2019 by Colophon Foundry. All rights reserved.
</metadata>
<defs>
<font id="ChickenSansBold" horiz-adv-x="0" >
  <font-face 
    font-family="ChickenSansBold"
    font-weight="700"
    font-stretch="normal"
    units-per-em="1000"
    panose-1="2 11 8 3 4 2 1 0 0 3"
    ascent="800"
    descent="-200"
    x-height="515"
    cap-height="700"
    bbox="-547 -195 1101 915"
    underline-thickness="50"
    underline-position="-150"
    unicode-range="U+0020-25CA"
  />
<missing-glyph horiz-adv-x="576" 
d="M68 0v700h440v-700h-440zM116 44h344v612h-344v-612z" />
    <glyph glyph-name="f_i" unicode="fi" horiz-adv-x="676" 
d="M535 551q-40 0 -66 24.5t-26 62.5t26 62.5t66 24.5t66 -24.5t26 -62.5t-26 -62.5t-66 -24.5zM90 515q0 205 183 205q83 0 134 -30l-47 -119q-26 17 -55 17q-28 0 -46 -17.5t-16 -55.5h114v-135h-113v-380h-154v380h-80v135h80zM458 0v515h154v-515h-154z" />
    <glyph glyph-name="f_l" unicode="fl" horiz-adv-x="684" 
d="M90 515q0 205 189 205q92 0 157 -48l-62 -107q-32 23 -69 23q-67 0 -62 -73h127v-135h-126v-380h-154v380h-80v135h80zM473 700h154v-700h-154v700z" />
    <glyph glyph-name=".notdef" horiz-adv-x="576" 
d="M68 0v700h440v-700h-440zM116 44h344v612h-344v-612z" />
    <glyph glyph-name=".null" 
 />
    <glyph glyph-name="nonmarkingreturn" horiz-adv-x="333" 
 />
    <glyph glyph-name="space" unicode=" " horiz-adv-x="192" 
 />
    <glyph glyph-name="exclam" unicode="!" horiz-adv-x="292" 
d="M80 230l-13 150v320h158v-320l-13 -150h-132zM146 -10q-40 0 -66 24.5t-26 62.5t26 62.5t66 24.5t66 -24.5t26 -62.5t-26 -62.5t-66 -24.5z" />
    <glyph glyph-name="quotedbl" unicode="&#x22;" horiz-adv-x="463" 
d="M80 450l-26 140v110h146v-110l-26 -140h-94zM289 450l-26 140v110h146v-110l-26 -140h-94z" />
    <glyph glyph-name="numbersign" unicode="#" horiz-adv-x="746" 
d="M721 403h-127l-31 -106h115v-130h-152l-48 -167h-145l48 167h-122l-48 -167h-145l48 167h-89v130h126l31 106h-114v130h151l48 167h145l-48 -167h122l48 167h145l-48 -167h90v-130zM418 297l31 106h-122l-31 -106h122z" />
    <glyph glyph-name="dollar" unicode="$" horiz-adv-x="588" 
d="M546 211q0 -82 -49.5 -139.5t-134.5 -74.5v-97h-136v96q-115 21 -200 131l126 96q69 -83 150 -83q38 0 60 16.5t22 42.5q0 25 -19 40.5t-63 27.5l-68 19q-185 51 -185 216q0 79 48.5 132.5t128.5 69.5v96h136v-99q109 -27 161 -145l-115 -87q-15 44 -47 68.5t-70 24.5
q-39 0 -61.5 -16t-22.5 -42q0 -48 64 -66l75 -21q102 -29 151 -78t49 -128z" />
    <glyph glyph-name="percent" unicode="%" horiz-adv-x="742" 
d="M179 387q-72 -1 -118.5 44.5t-46.5 116.5q0 72 46 117t119 45q72 0 118.5 -45t46.5 -117q0 -70 -46.5 -115t-118.5 -46zM146 0l-76 64l522 636l76 -62zM179 484q27 -1 42.5 15.5t15.5 48.5t-15.5 48.5t-42.5 16.5q-60 0 -60 -65q0 -62 60 -64zM563 -10
q-72 -1 -118.5 44.5t-46.5 116.5q0 72 46 117t119 45q72 0 118.5 -45t46.5 -117q0 -70 -46.5 -115t-118.5 -46zM564 87q27 -1 42.5 15.5t15.5 48.5t-15.5 48.5t-42.5 16.5q-60 0 -60 -65q0 -62 60 -64z" />
    <glyph glyph-name="ampersand" unicode="&#x26;" horiz-adv-x="623" 
d="M637 0h-174l-39 49q-75 -59 -175 -59q-97 0 -160.5 59t-63.5 158q0 119 118 197q-48 69 -48 136q0 71 52 120.5t142 49.5q137 0 192 -138l-113 -86q-13 40 -31 57t-43 17q-22 0 -34.5 -11t-12.5 -28q0 -9 2.5 -17.5t10.5 -20.5t14 -20t22 -27.5t25 -31.5l90 -115
q14 41 19 74l145 -33q-17 -97 -60 -173zM260 140q36 0 71 27l-104 130q-44 -35 -44 -81q0 -35 21 -55.5t56 -20.5z" />
    <glyph glyph-name="quotesingle" unicode="'" horiz-adv-x="254" 
d="M80 450l-26 140v110h146v-110l-26 -140h-94z" />
    <glyph glyph-name="parenleft" unicode="(" horiz-adv-x="387" 
d="M270 -195q-218 181 -218 465t218 465l95 -88q-159 -159 -159 -377t159 -377z" />
    <glyph glyph-name="parenright" unicode=")" horiz-adv-x="387" 
d="M117 -195l-95 88q159 159 159 377t-159 377l95 88q218 -181 218 -465t-218 -465z" />
    <glyph glyph-name="asterisk" unicode="*" horiz-adv-x="441" 
d="M411 555l-106 -22l73 -80l-104 -76l-54 94l-53 -94l-104 75l73 80l-106 22l39 122l99 -44l-12 108h128l-12 -108l99 45z" />
    <glyph glyph-name="plus" unicode="+" horiz-adv-x="538" 
d="M493 402v-136h-155v-156h-138v156h-155v136h155v156h138v-156h155z" />
    <glyph glyph-name="comma" unicode="," horiz-adv-x="287" 
d="M78 -168l-33 64q106 40 119 104q-20 -10 -49 -10q-30 0 -51 22.5t-21 55.5q0 36 26.5 62t71.5 26q49 0 76 -34t27 -87q0 -81 -44 -128t-122 -75z" />
    <glyph glyph-name="hyphen" unicode="-" horiz-adv-x="455" 
d="M45 238v136h365v-136h-365z" />
    <glyph glyph-name="period" unicode="." horiz-adv-x="270" 
d="M135 -10q-40 0 -66 24.5t-26 62.5t26 62.5t66 24.5t66 -24.5t26 -62.5t-26 -62.5t-66 -24.5z" />
    <glyph glyph-name="slash" unicode="/" horiz-adv-x="501" 
d="M10 0l319 700h162l-319 -700h-162z" />
    <glyph glyph-name="zero" unicode="0" horiz-adv-x="638" 
d="M319 -11q-125 0 -202.5 93.5t-77.5 267.5t77 267t203 93t203 -93t77 -267t-77.5 -267.5t-202.5 -93.5zM319 139q58 0 86 47t28 163q0 117 -28 164t-86 47t-86 -47t-28 -164q0 -116 28 -163t86 -47z" />
    <glyph glyph-name="one" unicode="1" horiz-adv-x="354" 
d="M128 0v505h-110v109l166 86h102v-700h-158z" />
    <glyph glyph-name="two" unicode="2" horiz-adv-x="543" 
d="M48 0v140l133 145q13 14 48 49.5t55 57.5t38 52.5t18 53.5q0 62 -69 62q-41 0 -74.5 -29t-48.5 -80l-118 89q28 77 95.5 123.5t152.5 46.5q107 0 162.5 -56.5t55.5 -138.5q0 -62 -28 -114t-82 -108l-137 -143h250v-150h-451z" />
    <glyph glyph-name="three" unicode="3" horiz-adv-x="552" 
d="M268 -10q-90 0 -149 33t-111 101l124 95q54 -79 136 -79q37 0 62 20.5t25 55.5q0 68 -102 68h-62v136h46q46 0 71 19.5t25 54.5q0 30 -20.5 48t-57.5 18q-79 0 -105 -81l-115 90q75 141 227 141q104 0 164.5 -51.5t60.5 -132.5q0 -50 -21.5 -92t-55.5 -63
q107 -42 107 -161q0 -98 -68.5 -159t-180.5 -61z" />
    <glyph glyph-name="four" unicode="4" horiz-adv-x="567" 
d="M549 272v-135h-85v-137h-152v137h-288v135l281 428h159v-428h85zM175 272h137v217z" />
    <glyph glyph-name="five" unicode="5" horiz-adv-x="544" 
d="M262 -10q-76 0 -138 35.5t-102 100.5l120 93q46 -79 120 -79q39 0 63.5 24t24.5 69t-25 69.5t-65 24.5q-50 0 -89 -32l-130 45l18 360h413v-146h-274l-7 -147q49 60 132 60q87 0 138 -60t51 -159q0 -128 -67 -193t-183 -65z" />
    <glyph glyph-name="six" unicode="6" horiz-adv-x="587" 
d="M304 -10q-126 0 -195.5 84.5t-69.5 263.5q0 99 22.5 173.5t62 116.5t86.5 62t101 20q89 0 143 -42t77 -137l-140 -29q-17 58 -80 58q-50 0 -81 -46t-31 -138q24 40 65.5 62t88.5 22q87 0 142 -59.5t55 -166.5t-64.5 -175.5t-181.5 -68.5zM304 138q41 0 65.5 24.5
t24.5 66.5t-24.5 66.5t-65.5 24.5t-65.5 -24.5t-24.5 -66.5t24.5 -66.5t65.5 -24.5z" />
    <glyph glyph-name="seven" unicode="7" horiz-adv-x="467" 
d="M65 0l220 554h-269v146h435v-138l-220 -562h-166z" />
    <glyph glyph-name="eight" unicode="8" horiz-adv-x="573" 
d="M287 -10q-114 0 -182 59.5t-68 160.5q0 57 25.5 100t66.5 61q-69 45 -69 137q0 89 60 145.5t167 56.5t169 -57t62 -145q0 -94 -74 -139q40 -18 66 -60.5t26 -98.5q0 -101 -67.5 -160.5t-181.5 -59.5zM287 429q79 0 79 73q0 34 -21 53t-58 19t-58.5 -19t-21.5 -53
q0 -73 80 -73zM287 126q43 0 68 22t25 62t-25 61.5t-68 21.5q-44 0 -69 -21.5t-25 -61.5q0 -41 25 -62.5t69 -21.5z" />
    <glyph glyph-name="nine" unicode="9" horiz-adv-x="587" 
d="M276 -10q-89 0 -143 42t-77 137l140 29q17 -58 80 -58q50 0 81 46t31 138q-24 -40 -65.5 -62t-88.5 -22q-87 0 -142 59.5t-55 166.5t64.5 175.5t181.5 68.5q126 0 195.5 -84.5t69.5 -263.5q0 -99 -22.5 -173.5t-62 -116.5t-86.5 -62t-101 -20zM283 380q41 0 65.5 24.5
t24.5 66.5t-24.5 66.5t-65.5 24.5t-65.5 -24.5t-24.5 -66.5t24.5 -66.5t65.5 -24.5z" />
    <glyph glyph-name="colon" unicode=":" horiz-adv-x="270" 
d="M135 351q-40 0 -66 24.5t-26 62.5t26 62.5t66 24.5t66 -24.5t26 -62.5t-26 -62.5t-66 -24.5zM135 -10q-40 0 -66 24.5t-26 62.5t26 62.5t66 24.5t66 -24.5t26 -62.5t-26 -62.5t-66 -24.5z" />
    <glyph glyph-name="semicolon" unicode=";" horiz-adv-x="287" 
d="M141 351q-40 0 -66 24.5t-26 62.5t26 62.5t66 24.5t66 -24.5t26 -62.5t-26 -62.5t-66 -24.5zM78 -168l-33 64q106 40 119 104q-20 -10 -49 -10q-30 0 -51 22.5t-21 55.5q0 36 26.5 62t71.5 26q49 0 76 -34t27 -87q0 -81 -44 -128t-122 -75z" />
    <glyph glyph-name="less" unicode="&#x3c;" horiz-adv-x="482" 
d="M428 59l-388 205v140l388 205v-162l-236 -113l236 -113v-162z" />
    <glyph glyph-name="equal" unicode="=" horiz-adv-x="538" 
d="M45 379v136h448v-136h-448zM45 153v136h448v-136h-448z" />
    <glyph glyph-name="greater" unicode="&#x3e;" horiz-adv-x="482" 
d="M54 59v162l236 113l-236 113v162l388 -205v-140z" />
    <glyph glyph-name="question" unicode="?" horiz-adv-x="471" 
d="M291 195q-89 14 -126 53t-37 89q0 67 79 125l43 32q33 24 33 41q0 31 -49 31q-66 0 -108 -81l-112 84q60 141 227 141q91 0 144.5 -43.5t53.5 -115.5q0 -93 -88 -147l-39 -24q-31 -20 -31 -35q0 -11 10.5 -18.5t43.5 -18.5zM230 -10q-40 0 -66 24.5t-26 62.5t26 62.5
t66 24.5t66 -24.5t26 -62.5t-26 -62.5t-66 -24.5z" />
    <glyph glyph-name="at" unicode="@" horiz-adv-x="883" 
d="M414 -175q-69 0 -132 21t-118.5 65t-88.5 122t-33 181q0 97 32.5 173.5t89.5 124t130.5 72t158.5 24.5q181 0 284.5 -96t103.5 -266q0 -130 -51 -188t-129 -58q-50 0 -81 18.5t-51 59.5q-25 -44 -55 -61t-71 -17q-67 0 -115.5 56.5t-48.5 157.5t46.5 155t117.5 54
q70 0 104 -53l13 48h113v-248q0 -63 40 -63q26 0 37 31t11 108q0 250 -268 250q-140 0 -215.5 -74.5t-75.5 -207.5q0 -128 70.5 -202.5t181.5 -74.5q100 0 165 38l49 -99q-96 -51 -214 -51zM442 121q68 0 68 93q0 91 -68 91q-69 0 -69 -91q0 -49 17 -71t52 -22z" />
    <glyph glyph-name="A" unicode="A" horiz-adv-x="664" 
d="M492 0l-47 154h-226l-47 -154h-164l234 700h180l234 -700h-164zM263 299h138l-69 226z" />
    <glyph glyph-name="B" unicode="B" horiz-adv-x="626" 
d="M471 381q51 -16 84 -60t33 -111q0 -99 -60 -154.5t-183 -55.5h-277v700h250q116 0 175.5 -48.5t59.5 -125.5q0 -107 -82 -145zM318 558h-92v-126h92q81 0 81 65q0 61 -81 61zM336 142q90 0 90 74t-90 74h-110v-148h110z" />
    <glyph glyph-name="C" unicode="C" horiz-adv-x="669" 
d="M360 -10q-146 0 -234.5 95.5t-88.5 264.5q0 168 91.5 264t231.5 96q125 0 190 -63t77 -187l-150 -33q-12 133 -117 133q-71 0 -114 -55t-43 -156q0 -100 43 -154.5t114 -54.5q55 0 87 30t50 90l152 -33q-28 -115 -101.5 -176t-187.5 -61z" />
    <glyph glyph-name="D" unicode="D" horiz-adv-x="664" 
d="M303 700q324 0 324 -350t-324 -350h-235v700h235zM303 150q82 0 123 46t41 154t-41 154t-123 46h-77v-400h77z" />
    <glyph glyph-name="E" unicode="E" horiz-adv-x="572" 
d="M68 0v700h466v-150h-308v-118h274v-150h-274v-132h314v-150h-472z" />
    <glyph glyph-name="F" unicode="F" horiz-adv-x="556" 
d="M534 550h-308v-128h274v-150h-274v-272h-158v700h466v-150z" />
    <glyph glyph-name="G" unicode="G" horiz-adv-x="688" 
d="M371 382h265v-382h-115l-14 93q-28 -46 -77 -74.5t-107 -28.5q-123 0 -204.5 93.5t-81.5 266.5q0 176 89.5 268t231.5 92q122 0 184 -54.5t76 -172.5l-150 -33q-13 110 -110 110q-72 0 -113.5 -51.5t-41.5 -159.5q0 -209 157 -209q48 0 83 29t39 78h-111v135z" />
    <glyph glyph-name="H" unicode="H" horiz-adv-x="700" 
d="M68 0v700h158v-264h248v264h158v-700h-158v286h-248v-286h-158z" />
    <glyph glyph-name="I" unicode="I" horiz-adv-x="294" 
d="M68 0v700h158v-700h-158z" />
    <glyph glyph-name="J" unicode="J" horiz-adv-x="552" 
d="M251 -10q-108 0 -168 62.5t-62 172.5l144 32q0 -117 86 -117q42 0 60 26t18 90v444h158v-443q0 -138 -58 -202.5t-178 -64.5z" />
    <glyph glyph-name="K" unicode="K" horiz-adv-x="634" 
d="M447 0l-156 296l-65 -78v-218h-158v700h158v-261l211 261h190l-228 -274l233 -426h-185z" />
    <glyph glyph-name="L" unicode="L" horiz-adv-x="565" 
d="M68 0v700h158v-550h317v-150h-475z" />
    <glyph glyph-name="M" unicode="M" horiz-adv-x="842" 
d="M68 0v700h192l161 -437l161 437h192v-700h-148v454l-136 -368h-138l-136 368v-454h-148z" />
    <glyph glyph-name="N" unicode="N" horiz-adv-x="710" 
d="M68 0v700h173l249 -475v475h152v-700h-173l-249 444v-444h-152z" />
    <glyph glyph-name="O" unicode="O" horiz-adv-x="740" 
d="M370 -10q-149 0 -241 96t-92 264t92 264t241 96t241 -96t92 -264t-92 -264t-241 -96zM370 140q78 0 122.5 54.5t44.5 155.5t-44.5 155.5t-122.5 54.5t-122.5 -54.5t-44.5 -155.5t44.5 -155.5t122.5 -54.5z" />
    <glyph glyph-name="P" unicode="P" horiz-adv-x="607" 
d="M348 700q120 0 180.5 -60t60.5 -166t-60.5 -166t-180.5 -60h-122v-248h-158v700h280zM348 398q81 0 81 76t-81 76h-122v-152h122z" />
    <glyph glyph-name="Q" unicode="Q" horiz-adv-x="740" 
d="M703 350q0 -138 -63.5 -228.5t-171.5 -119.5q45 -20 123 -26l-73 -151q-81 26 -134.5 70.5t-71.5 98.5q-125 18 -200 111.5t-75 244.5q0 168 92 264t241 96t241 -96t92 -264zM370 140q78 0 122.5 54.5t44.5 155.5t-44.5 155.5t-122.5 54.5t-122.5 -54.5t-44.5 -155.5
t44.5 -155.5t122.5 -54.5z" />
    <glyph glyph-name="R" unicode="R" horiz-adv-x="616" 
d="M417 0l-113 274h-78v-274h-158v700h282q231 0 231 -213q0 -152 -119 -195l131 -292h-176zM226 558v-143h119q38 0 58 19.5t20 52.5q0 32 -20 51.5t-58 19.5h-119z" />
    <glyph glyph-name="S" unicode="S" horiz-adv-x="572" 
d="M293 -10q-161 0 -267 137l126 96q69 -83 150 -83q38 0 60 16.5t22 42.5q0 25 -19 40.5t-63 27.5l-68 19q-185 51 -185 216q0 95 67.5 151.5t174.5 56.5q165 0 232 -154l-115 -87q-15 44 -47 68.5t-70 24.5q-39 0 -61.5 -16t-22.5 -42q0 -48 64 -66l75 -21
q102 -29 151 -78t49 -128q0 -99 -69.5 -160t-183.5 -61z" />
    <glyph glyph-name="T" unicode="T" horiz-adv-x="554" 
d="M546 700v-150h-190v-550h-158v550h-190v150h538z" />
    <glyph glyph-name="U" unicode="U" horiz-adv-x="708" 
d="M354 -10q-135 0 -212 73.5t-77 223.5v413h158v-387q0 -95 31.5 -134t99.5 -39q65 0 98 40t33 134v386h158v-413q0 -150 -77 -223.5t-212 -73.5z" />
    <glyph glyph-name="V" unicode="V" horiz-adv-x="654" 
d="M232 0l-224 700h172l147 -515l147 515h172l-224 -700h-190z" />
    <glyph glyph-name="W" unicode="W" horiz-adv-x="974" 
d="M180 0l-164 700h170l95 -515l120 515h172l120 -515l95 515h170l-164 -700h-193l-114 502l-114 -502h-193z" />
    <glyph glyph-name="X" unicode="X" horiz-adv-x="616" 
d="M3 0l209 364l-200 336h183l113 -213l113 213h183l-200 -336l209 -364h-180l-125 234l-125 -234h-180z" />
    <glyph glyph-name="Y" unicode="Y" horiz-adv-x="606" 
d="M602 700l-220 -463v-237h-158v237l-220 463h170l129 -299l129 299h170z" />
    <glyph glyph-name="Z" unicode="Z" horiz-adv-x="531" 
d="M23 0v136l285 418h-266v146h455v-138l-285 -416h296v-146h-485z" />
    <glyph glyph-name="bracketleft" unicode="[" horiz-adv-x="387" 
d="M68 -165v865h301v-136h-151v-593h151v-136h-301z" />
    <glyph glyph-name="backslash" unicode="\" horiz-adv-x="501" 
d="M491 0h-162l-319 700h162z" />
    <glyph glyph-name="bracketright" unicode="]" horiz-adv-x="387" 
d="M319 -165h-301v136h151v593h-151v136h301v-865z" />
    <glyph glyph-name="asciicircum" unicode="^" horiz-adv-x="484" 
d="M24 483l136 217h164l136 -217h-145l-73 106l-73 -106h-145z" />
    <glyph glyph-name="underscore" unicode="_" horiz-adv-x="530" 
d="M0 -156v136h530v-136h-530z" />
    <glyph glyph-name="grave" unicode="`" horiz-adv-x="272" 
d="M121 563l-109 137h178l64 -137h-133z" />
    <glyph glyph-name="a" unicode="a" horiz-adv-x="525" 
d="M257 525q106 0 161 -58.5t55 -187.5v-279h-128l-15 76q-56 -86 -155 -86q-64 0 -104.5 41.5t-40.5 112.5q0 174 292 178q-2 37 -20 52t-54 15q-62 0 -88 -50l-116 67q67 119 213 119zM238 116q85 0 85 101v8h-24q-115 0 -115 -62q0 -47 54 -47z" />
    <glyph glyph-name="b" unicode="b" horiz-adv-x="593" 
d="M363 -10q-56 0 -94 22t-68 69l-14 -81h-130v700h154v-257q41 82 152 82q93 0 144 -66t51 -201q0 -131 -55.5 -199.5t-139.5 -68.5zM305 130q95 0 95 128q0 127 -95 127q-97 0 -97 -132q0 -123 97 -123z" />
    <glyph glyph-name="c" unicode="c" horiz-adv-x="516" 
d="M281 -10q-108 0 -178.5 71t-70.5 197q0 125 70.5 196t178.5 71q81 0 138 -43.5t67 -142.5l-139 -29q-11 75 -66 75q-42 0 -66.5 -33t-24.5 -95t24.5 -94.5t66.5 -32.5q33 0 53 17.5t33 57.5l139 -31q-53 -184 -225 -184z" />
    <glyph glyph-name="d" unicode="d" horiz-adv-x="593" 
d="M230 -10q-84 0 -139.5 68.5t-55.5 199.5q0 135 51 201t144 66q111 0 152 -82v257h154v-700h-130l-14 81q-30 -47 -68 -69t-94 -22zM288 130q97 0 97 123q0 132 -97 132q-95 0 -95 -127q0 -128 95 -128z" />
    <glyph glyph-name="e" unicode="e" horiz-adv-x="544" 
d="M290 122q56 0 81 52l139 -31q-30 -79 -90.5 -116t-134.5 -37q-115 0 -184 73t-69 195q0 121 69 194t184 73q97 0 163 -58.5t66 -171.5q0 -41 -10 -82h-319q16 -91 105 -91zM285 393q-84 0 -99 -88h176q1 43 -20.5 65.5t-56.5 22.5z" />
    <glyph glyph-name="f" unicode="f" horiz-adv-x="400" 
d="M305 588q-67 0 -62 -73h127v-135h-126v-380h-154v380h-80v135h80q0 205 189 205q92 0 157 -48l-62 -107q-32 23 -69 23z" />
    <glyph glyph-name="g" unicode="g" horiz-adv-x="593" 
d="M280 -175q-72 0 -132 22.5t-92 57.5l88 106q61 -50 136 -50q47 0 74.5 32t27.5 96v23q-57 -73 -152 -73q-83 0 -139 64t-56 176q0 120 55 183t140 63q111 0 152 -82l14 72h140v-376q0 -314 -256 -314zM288 173q46 0 71.5 28t25.5 78t-25.5 78t-71.5 28q-45 0 -70 -28
t-25 -78t25 -78t70 -28z" />
    <glyph glyph-name="h" unicode="h" horiz-adv-x="585" 
d="M57 0v700h154v-277q17 51 53.5 76.5t103.5 25.5q165 0 165 -194v-331h-154v285q0 54 -19 77t-61 23t-65 -24.5t-23 -85.5v-275h-154z" />
    <glyph glyph-name="i" unicode="i" horiz-adv-x="270" 
d="M135 551q-40 0 -66 24.5t-26 62.5t26 62.5t66 24.5t66 -24.5t26 -62.5t-26 -62.5t-66 -24.5zM58 0v515h154v-515h-154z" />
    <glyph glyph-name="j" unicode="j" horiz-adv-x="273" 
d="M138 551q-40 0 -66 24.5t-26 62.5t26 62.5t66 24.5t66 -24.5t26 -62.5t-26 -62.5t-66 -24.5zM-25 -70q44 38 65 80t21 105v400h154v-391q0 -111 -36 -174.5t-126 -124.5z" />
    <glyph glyph-name="k" unicode="k" horiz-adv-x="556" 
d="M382 0l-124 212l-47 -51v-161h-154v700h154v-346l149 161h181l-180 -193l195 -322h-174z" />
    <glyph glyph-name="l" unicode="l" horiz-adv-x="268" 
d="M57 0v700h154v-700h-154z" />
    <glyph glyph-name="m" unicode="m" horiz-adv-x="867" 
d="M57 0v515h131l14 -92q35 102 157 102q57 0 91.5 -25.5t51.5 -82.5q12 49 53 78.5t106 29.5q71 0 112.5 -47.5t41.5 -146.5v-331h-154v295q0 49 -18 69.5t-55 20.5q-75 0 -75 -100v-285h-154v295q0 48 -18 69t-55 21q-75 0 -75 -100v-285h-154z" />
    <glyph glyph-name="n" unicode="n" horiz-adv-x="585" 
d="M57 0v515h131l14 -92q35 102 166 102q165 0 165 -194v-331h-154v285q0 54 -19 77t-61 23t-65 -24.5t-23 -85.5v-275h-154z" />
    <glyph glyph-name="o" unicode="o" horiz-adv-x="572" 
d="M286 -10q-112 0 -183 71t-71 197q0 125 71 196t183 71t183 -71t71 -196q0 -126 -71 -197t-183 -71zM286 130q45 0 70.5 32.5t25.5 94.5q0 63 -25.5 95.5t-70.5 32.5t-70.5 -32.5t-25.5 -95.5q0 -62 25.5 -94.5t70.5 -32.5z" />
    <glyph glyph-name="p" unicode="p" horiz-adv-x="593" 
d="M57 -165v680h140l14 -72q41 82 152 82q93 0 144 -66t51 -201q0 -131 -55.5 -199.5t-139.5 -68.5q-97 0 -152 78v-233h-154zM305 130q95 0 95 128q0 127 -95 127q-97 0 -97 -132q0 -123 97 -123z" />
    <glyph glyph-name="q" unicode="q" horiz-adv-x="593" 
d="M382 -165v233q-32 -43 -66.5 -60.5t-85.5 -17.5q-84 0 -139.5 68.5t-55.5 199.5q0 135 51 201t144 66q111 0 152 -82l14 72h140v-680h-154zM288 130q97 0 97 123q0 132 -97 132q-95 0 -95 -127q0 -128 95 -128z" />
    <glyph glyph-name="r" unicode="r" horiz-adv-x="440" 
d="M57 0v515h131l14 -92q14 46 49.5 74t85.5 28q91 0 115 -98l-111 -84q-21 42 -58 42q-36 0 -54 -26t-18 -88v-271h-154z" />
    <glyph glyph-name="s" unicode="s" horiz-adv-x="456" 
d="M231 -10q-65 0 -125 30.5t-91 79.5l106 76q54 -58 119 -58q23 0 37 9t14 22t-7.5 20t-27.5 13l-67 18q-89 24 -122.5 65t-33.5 99q0 74 55.5 117.5t129.5 43.5q131 0 193 -103l-105 -76q-30 51 -83 51q-50 0 -50 -30q0 -22 33 -30l69 -18q72 -19 114.5 -56.5t42.5 -107.5
q0 -76 -56.5 -120.5t-144.5 -44.5z" />
    <glyph glyph-name="t" unicode="t" horiz-adv-x="387" 
d="M375 515v-135h-126v-380h-154v380h-85v135h93l14 152h132v-152h126z" />
    <glyph glyph-name="u" unicode="u" horiz-adv-x="585" 
d="M217 -10q-165 0 -165 194v331h154v-285q0 -54 19 -77t60 -23q43 0 66 24.5t23 85.5v275h154v-515h-131l-14 81q-23 -45 -67.5 -68t-98.5 -23z" />
    <glyph glyph-name="v" unicode="v" horiz-adv-x="540" 
d="M186 0l-182 515h162l104 -340l104 340h162l-182 -515h-168z" />
    <glyph glyph-name="w" unicode="w" horiz-adv-x="808" 
d="M164 0l-156 515h162l75 -340l81 340h156l81 -340l75 340h162l-156 -515h-167l-73 332l-73 -332h-167z" />
    <glyph glyph-name="x" unicode="x" horiz-adv-x="524" 
d="M12 0l166 267l-161 248h170l75 -140l75 140h170l-160 -248l165 -267h-170l-80 154l-80 -154h-170z" />
    <glyph glyph-name="y" unicode="y" horiz-adv-x="532" 
d="M120 -165l64 181l-180 499h164l96 -336l100 336h164l-253 -680h-155z" />
    <glyph glyph-name="z" unicode="z" horiz-adv-x="433" 
d="M20 0v125l217 258h-203v132h369v-125l-217 -258h227v-132h-393z" />
    <glyph glyph-name="braceleft" unicode="{" horiz-adv-x="440" 
d="M342 -165q-209 0 -209 206v60q0 53 -21.5 75.5t-73.5 22.5v137q52 0 73.5 22.5t21.5 75.5v60q0 104 50.5 155t156.5 51h82v-134h-46q-55 0 -75 -20t-20 -75v-84q0 -51 -24.5 -78.5t-74.5 -40.5q50 -13 74.5 -41t24.5 -79v-84q0 -55 20 -75t75 -20h46v-134h-80z" />
    <glyph glyph-name="bar" unicode="|" horiz-adv-x="288" 
d="M68 -115v815h152v-815h-152z" />
    <glyph glyph-name="braceright" unicode="}" horiz-adv-x="440" 
d="M98 -165h-80v134h46q55 0 75 20t20 75v84q0 51 24.5 79t74.5 41q-50 13 -74.5 40.5t-24.5 78.5v84q0 55 -20 75t-75 20h-46v134h82q106 0 156.5 -51t50.5 -155v-60q0 -53 21.5 -75.5t73.5 -22.5v-137q-52 0 -73.5 -22.5t-21.5 -75.5v-60q0 -206 -209 -206z" />
    <glyph glyph-name="asciitilde" unicode="~" horiz-adv-x="495" 
d="M328 277q-32 0 -82.5 20.5t-67.5 20.5q-41 0 -71 -51l-93 89q61 102 153 102q32 0 82.5 -20.5t67.5 -20.5q41 0 71 51l93 -89q-61 -102 -153 -102z" />
    <glyph glyph-name="uni00A0" unicode="&#xa0;" horiz-adv-x="192" 
 />
    <glyph glyph-name="exclamdown" unicode="&#xa1;" horiz-adv-x="292" 
d="M146 525q40 0 66 -24.5t26 -62.5t-26 -62.5t-66 -24.5t-66 24.5t-26 62.5t26 62.5t66 24.5zM70 -165v305l13 145h132l13 -145v-305h-158z" />
    <glyph glyph-name="cent" unicode="&#xa2;" horiz-adv-x="516" 
d="M506 174q-43 -150 -166 -178v-96h-136v101q-78 23 -125 89.5t-47 167.5t46.5 167t125.5 89v101h136v-96q130 -29 146 -180l-139 -29q-11 75 -66 75q-42 0 -66.5 -33t-24.5 -95t24.5 -94.5t66.5 -32.5q33 0 53 17.5t33 57.5z" />
    <glyph glyph-name="sterling" unicode="&#xa3;" horiz-adv-x="586" 
d="M253 146h285v-146h-480v136q92 64 92 134v6h-92v115h56q-27 71 -27 131q0 83 60 135.5t165 52.5q163 0 218 -158l-118 -89q-25 97 -95 97t-70 -63q0 -32 31 -106h197v-115h-163v-6q0 -58 -59 -124z" />
    <glyph glyph-name="currency" unicode="&#xa4;" horiz-adv-x="598" 
d="M511 313q0 -61 -28 -109l91 -83l-93 -94l-91 100q-42 -16 -90 -16q-59 0 -105 23l-88 -96l-94 93l97 88q-21 41 -21 94q0 60 28 107l-93 85l93 94l91 -101q42 17 92 17q57 0 104 -22l87 95l94 -93l-95 -86q21 -42 21 -96zM215 312q0 -40 22.5 -62t62.5 -22q38 0 60.5 22
t22.5 62t-22.5 63t-60.5 23q-40 0 -62.5 -23t-22.5 -63z" />
    <glyph glyph-name="yen" unicode="&#xa5;" horiz-adv-x="606" 
d="M602 700l-127 -268h86v-110h-139l-19 -41h158v-110h-179v-171h-158v171h-179v110h158l-19 41h-139v110h86l-127 268h170l129 -299l129 299h170z" />
    <glyph glyph-name="brokenbar" unicode="&#xa6;" horiz-adv-x="288" 
d="M68 340v360h152v-360h-152zM68 -115v360h152v-360h-152z" />
    <glyph glyph-name="section" unicode="&#xa7;" horiz-adv-x="555" 
d="M300 -175q-85 0 -148 31t-122 103l126 96q67 -80 145 -80q58 0 58 34q0 16 -14 26t-58 24l-70 23q-178 59 -178 191q0 68 59 124q-55 55 -55 125q0 91 67.5 139.5t164.5 48.5q166 0 222 -149l-115 -77q-34 78 -112 78q-31 0 -50 -10t-19 -28q0 -15 12.5 -25t41.5 -19
l70 -23q105 -35 152.5 -74t47.5 -104q0 -81 -61 -140q30 -28 43.5 -56t13.5 -70q0 -89 -62.5 -138.5t-158.5 -49.5zM342 205q21 25 21 46q0 19 -15.5 31.5t-56.5 24.5l-73 20q-21 -23 -21 -44q0 -20 12.5 -31t41.5 -20z" />
    <glyph glyph-name="dieresis" unicode="&#xa8;" horiz-adv-x="418" 
d="M109 557q-36 0 -60 22.5t-24 56.5t24 56.5t60 22.5t59.5 -22.5t23.5 -56.5t-23.5 -56.5t-59.5 -22.5zM310 557q-36 0 -60 22.5t-24 56.5t24 56.5t60 22.5t59.5 -22.5t23.5 -56.5t-23.5 -56.5t-59.5 -22.5z" />
    <glyph glyph-name="copyright" unicode="&#xa9;" horiz-adv-x="812" 
d="M406 -10q-152 0 -253 95t-101 265t101 265t253 95t253 -95t101 -265t-101 -265t-253 -95zM406 90q117 0 181.5 73.5t64.5 186.5t-64.5 186.5t-181.5 73.5t-181.5 -73.5t-64.5 -186.5t64.5 -186.5t181.5 -73.5zM412 147q-82 0 -133 54t-51 149q0 94 52.5 148t131.5 54
q138 0 152 -141l-93 -19q-7 69 -59 69q-37 0 -58.5 -28t-21.5 -83q0 -56 21.5 -83.5t58.5 -27.5q28 0 43.5 14.5t25.5 47.5l95 -20q-15 -64 -57.5 -99t-106.5 -35z" />
    <glyph glyph-name="ordfeminine" unicode="&#xaa;" horiz-adv-x="410" 
d="M202 704q170 0 170 -189v-215h-103l-11 58q-43 -66 -120 -66q-49 0 -80 32t-31 87q0 134 224 137q-4 48 -52 48q-47 0 -68 -38l-93 54q52 92 164 92zM187 393q65 0 65 74v3h-18q-84 0 -84 -45q0 -32 37 -32z" />
    <glyph glyph-name="guillemotleft" unicode="&#xab;" horiz-adv-x="668" 
d="M187 19l-149 238l149 238h164l-149 -238l149 -238h-164zM466 19l-149 238l149 238h164l-149 -238l149 -238h-164z" />
    <glyph glyph-name="logicalnot" unicode="&#xac;" horiz-adv-x="528" 
d="M333 174v142h-288v136h428v-278h-140z" />
    <glyph glyph-name="uni00AD" unicode="&#xad;" horiz-adv-x="455" 
d="M45 238v136h365v-136h-365z" />
    <glyph glyph-name="registered" unicode="&#xae;" horiz-adv-x="812" 
d="M406 710q152 0 253 -95t101 -265t-101 -265t-253 -95t-253 95t-101 265t101 265t253 95zM406 90q117 0 181.5 73.5t64.5 186.5t-64.5 186.5t-181.5 73.5t-181.5 -73.5t-64.5 -186.5t64.5 -186.5t181.5 -73.5zM551 423q0 -80 -64 -106l68 -156h-107l-54 144h-31v-144h-97
v379h144q141 0 141 -117zM363 455v-66h57q36 0 36 34q0 32 -36 32h-57z" />
    <glyph glyph-name="macron" unicode="&#xaf;" horiz-adv-x="357" 
d="M46 580v110h265v-110h-265z" />
    <glyph glyph-name="degree" unicode="&#xb0;" horiz-adv-x="382" 
d="M191 398q-73 0 -119.5 43.5t-46.5 112.5t46.5 112.5t119.5 43.5t119.5 -43.5t46.5 -112.5t-46.5 -112.5t-119.5 -43.5zM191 496q29 0 45.5 15t16.5 43t-16.5 43t-45.5 15t-45.5 -15t-16.5 -43t16.5 -43t45.5 -15z" />
    <glyph glyph-name="plusminus" unicode="&#xb1;" horiz-adv-x="538" 
d="M338 515h155v-136h-155v-156h-138v156h-155v136h155v156h138v-156zM45 0v136h448v-136h-448z" />
    <glyph glyph-name="uni00B2" unicode="&#xb2;" horiz-adv-x="326" 
d="M37 415v80l71 82q5 6 25.5 28t30 33t19.5 28.5t10 30.5q0 31 -32 31q-40 0 -61 -61l-74 56q18 45 54.5 71t87.5 26q61 0 93 -32.5t32 -79.5q0 -61 -58 -127l-66 -74h127v-92h-259z" />
    <glyph glyph-name="uni00B3" unicode="&#xb3;" horiz-adv-x="347" 
d="M169 410q-95 0 -149 71l74 57q33 -36 75 -36q46 0 46 34q0 38 -50 38h-36v82h26q47 0 47 37q0 35 -36 35q-41 0 -61 -37l-70 56q48 73 137 73q59 0 92.5 -28.5t33.5 -76.5q0 -58 -44 -88q63 -24 63 -92q0 -56 -40.5 -90.5t-107.5 -34.5z" />
    <glyph glyph-name="acute" unicode="&#xb4;" horiz-adv-x="272" 
d="M18 563l64 137h178l-109 -137h-133z" />
    <glyph glyph-name="uni00B5" unicode="&#xb5;" horiz-adv-x="590" 
d="M57 -165v680h154v-285q0 -54 19 -77t60 -23q43 0 66 24.5t23 85.5v275h154v-515h-131l-14 81q-23 -45 -67 -68t-95 -23q-10 0 -15 1v-156h-154z" />
    <glyph glyph-name="paragraph" unicode="&#xb6;" horiz-adv-x="629" 
d="M561 700v-815h-132v675h-55v-675h-132v439q-224 1 -224 188t224 188h319z" />
    <glyph glyph-name="periodcentered" unicode="&#xb7;" horiz-adv-x="270" 
d="M135 220q-40 0 -66 24.5t-26 62.5t26 62.5t66 24.5t66 -24.5t26 -62.5t-26 -62.5t-66 -24.5z" />
    <glyph glyph-name="cedilla" unicode="&#xb8;" horiz-adv-x="276" 
d="M38 -130l49 130h129l-30 -130h-148z" />
    <glyph glyph-name="uni00B9" unicode="&#xb9;" horiz-adv-x="241" 
d="M83 415v284h-65v67l93 49h72v-400h-100z" />
    <glyph glyph-name="ordmasculine" unicode="&#xba;" horiz-adv-x="445" 
d="M222 294q-85 0 -140 54.5t-55 151.5t55 151.5t140 54.5q86 0 141 -54.5t55 -151.5t-55 -151.5t-141 -54.5zM222 406q69 0 69 94t-69 94q-68 0 -68 -94t68 -94z" />
    <glyph glyph-name="guillemotright" unicode="&#xbb;" horiz-adv-x="668" 
d="M202 19h-164l149 238l-149 238h164l149 -238zM481 19h-164l149 238l-149 238h164l149 -238z" />
    <glyph glyph-name="onequarter" unicode="&#xbc;" horiz-adv-x="824" 
d="M183 300h-100v284h-65v67l93 49h72v-400zM609 700l76 -62l-522 -638l-76 64zM798 159v-81h-52v-78h-94v78h-164v81l159 241h99v-241h52zM582 159h70v115z" />
    <glyph glyph-name="onehalf" unicode="&#xbd;" horiz-adv-x="857" 
d="M83 300v284h-65v67l93 49h72v-400h-100zM163 0l-76 64l522 636l76 -62zM568 0v80l71 82q5 6 25.5 28t30 33t19.5 28.5t10 30.5q0 31 -32 31q-40 0 -61 -61l-74 56q18 45 54.5 71t87.5 26q61 0 93 -32.5t32 -79.5q0 -61 -58 -127l-66 -74h127v-92h-259z" />
    <glyph glyph-name="threequarters" unicode="&#xbe;" horiz-adv-x="930" 
d="M317 420q0 -56 -40.5 -90.5t-107.5 -34.5q-95 0 -149 71l74 57q33 -36 75 -36q46 0 46 34q0 38 -50 38h-36v82h26q47 0 47 37q0 35 -36 35q-41 0 -61 -37l-70 56q48 73 137 73q59 0 92.5 -28.5t33.5 -76.5q0 -58 -44 -88q63 -24 63 -92zM715 700l76 -62l-522 -638l-76 64
zM904 159v-81h-52v-78h-94v78h-164v81l159 241h99v-241h52zM688 159h70v115z" />
    <glyph glyph-name="questiondown" unicode="&#xbf;" horiz-adv-x="465" 
d="M243 525q40 0 66 -24.5t26 -62.5t-26 -62.5t-66 -24.5t-66 24.5t-26 62.5t26 62.5t66 24.5zM232 -175q-91 0 -144.5 43.5t-53.5 115.5q0 87 88 137l35 20q35 20 35 34q0 11 -11 18.5t-43 13.5l44 113q163 -25 163 -137q0 -70 -79 -120l-43 -27q-33 -20 -33 -36
q0 -31 49 -31q66 0 108 81l112 -84q-27 -63 -85.5 -102t-141.5 -39z" />
    <glyph glyph-name="Agrave" unicode="&#xc0;" horiz-adv-x="664" 
d="M406 748h-133l-109 137h178zM492 0l-47 154h-226l-47 -154h-164l234 700h180l234 -700h-164zM263 299h138l-69 226z" />
    <glyph glyph-name="Aacute" unicode="&#xc1;" horiz-adv-x="664" 
d="M500 885l-109 -137h-133l64 137h178zM492 0l-47 154h-226l-47 -154h-164l234 700h180l234 -700h-164zM263 299h138l-69 226z" />
    <glyph glyph-name="Acircumflex" unicode="&#xc2;" horiz-adv-x="664" 
d="M332 801l-43 -53h-125l86 137h164l86 -137h-125zM492 0l-47 154h-226l-47 -154h-164l234 700h180l234 -700h-164zM263 299h138l-69 226z" />
    <glyph glyph-name="Atilde" unicode="&#xc3;" horiz-adv-x="664" 
d="M273 789q-34 0 -59 -43l-75 72q51 85 127 85q30 0 72 -18t53 -18q34 0 59 43l75 -72q-51 -85 -127 -85q-26 0 -68 18t-57 18zM492 0l-47 154h-226l-47 -154h-164l234 700h180l234 -700h-164zM263 299h138l-69 226z" />
    <glyph glyph-name="Adieresis" unicode="&#xc4;" horiz-adv-x="664" 
d="M232 742q-36 0 -60 22.5t-24 56.5t24 56.5t60 22.5t59.5 -22.5t23.5 -56.5t-23.5 -56.5t-59.5 -22.5zM433 742q-36 0 -60 22.5t-24 56.5t24 56.5t60 22.5t59.5 -22.5t23.5 -56.5t-23.5 -56.5t-59.5 -22.5zM492 0l-47 154h-226l-47 -154h-164l234 700h180l234 -700h-164z
M263 299h138l-69 226z" />
    <glyph glyph-name="Aring" unicode="&#xc5;" horiz-adv-x="664" 
d="M332 733q-43 0 -70 25t-27 66t27 66t70 25t70 -25t27 -66t-27 -66t-70 -25zM332 853q-31 0 -31 -29t31 -29t31 29t-31 29zM492 0l-47 154h-226l-47 -154h-164l234 700h180l234 -700h-164zM263 299h138l-69 226z" />
    <glyph glyph-name="AE" unicode="&#xc6;" horiz-adv-x="987" 
d="M641 150h314v-150h-472v154h-234l-71 -154h-170l324 700h617v-150h-308v-118h274v-150h-274v-132zM316 299h167v251h-50z" />
    <glyph glyph-name="Ccedilla" unicode="&#xc7;" horiz-adv-x="669" 
d="M649 227q-24 -99 -82 -158t-145 -74l-29 -125h-148l47 126q-117 21 -186 113t-69 241q0 168 91.5 264t231.5 96q125 0 190 -63t77 -187l-150 -33q-12 133 -117 133q-71 0 -114 -55t-43 -156q0 -100 43 -154.5t114 -54.5q55 0 87 30t50 90z" />
    <glyph glyph-name="Egrave" unicode="&#xc8;" horiz-adv-x="572" 
d="M247 748l-109 137h178l64 -137h-133zM68 0v700h466v-150h-308v-118h274v-150h-274v-132h314v-150h-472z" />
    <glyph glyph-name="Eacute" unicode="&#xc9;" horiz-adv-x="572" 
d="M232 748l64 137h178l-109 -137h-133zM68 0v700h466v-150h-308v-118h274v-150h-274v-132h314v-150h-472z" />
    <glyph glyph-name="Ecircumflex" unicode="&#xca;" horiz-adv-x="572" 
d="M138 748l86 137h164l86 -137h-125l-43 53l-43 -53h-125zM68 0v700h466v-150h-308v-118h274v-150h-274v-132h314v-150h-472z" />
    <glyph glyph-name="Edieresis" unicode="&#xcb;" horiz-adv-x="572" 
d="M206 742q-36 0 -60 22.5t-24 56.5t24 56.5t60 22.5t59.5 -22.5t23.5 -56.5t-23.5 -56.5t-59.5 -22.5zM407 742q-36 0 -60 22.5t-24 56.5t24 56.5t60 22.5t59.5 -22.5t23.5 -56.5t-23.5 -56.5t-59.5 -22.5zM68 0v700h466v-150h-308v-118h274v-150h-274v-132h314v-150h-472
z" />
    <glyph glyph-name="Igrave" unicode="&#xcc;" horiz-adv-x="294" 
d="M88 748l-109 137h178l64 -137h-133zM68 0v700h158v-700h-158z" />
    <glyph glyph-name="Iacute" unicode="&#xcd;" horiz-adv-x="294" 
d="M73 748l64 137h178l-109 -137h-133zM68 0v700h158v-700h-158z" />
    <glyph glyph-name="Icircumflex" unicode="&#xce;" horiz-adv-x="294" 
d="M-21 748l86 137h164l86 -137h-125l-43 53l-43 -53h-125zM68 0v700h158v-700h-158z" />
    <glyph glyph-name="Idieresis" unicode="&#xcf;" horiz-adv-x="294" 
d="M47 742q-36 0 -60 22.5t-24 56.5t24 56.5t60 22.5t59.5 -22.5t23.5 -56.5t-23.5 -56.5t-59.5 -22.5zM248 742q-36 0 -60 22.5t-24 56.5t24 56.5t60 22.5t59.5 -22.5t23.5 -56.5t-23.5 -56.5t-59.5 -22.5zM68 0v700h158v-700h-158z" />
    <glyph glyph-name="Eth" unicode="&#xd0;" horiz-adv-x="688" 
d="M327 700q324 0 324 -350t-324 -350h-235v282h-72v135h72v283h235zM327 150q82 0 123 46t41 154t-41 154t-123 46h-77v-133h126v-135h-126v-132h77z" />
    <glyph glyph-name="Ntilde" unicode="&#xd1;" horiz-adv-x="710" 
d="M237 746l-75 72q51 85 127 85q30 0 72 -18t53 -18q34 0 59 43l75 -72q-51 -85 -127 -85q-26 0 -68 18t-57 18q-34 0 -59 -43zM68 0v700h173l249 -475v475h152v-700h-173l-249 444v-444h-152z" />
    <glyph glyph-name="Ograve" unicode="&#xd2;" horiz-adv-x="740" 
d="M311 748l-109 137h178l64 -137h-133zM370 -10q-149 0 -241 96t-92 264t92 264t241 96t241 -96t92 -264t-92 -264t-241 -96zM370 140q78 0 122.5 54.5t44.5 155.5t-44.5 155.5t-122.5 54.5t-122.5 -54.5t-44.5 -155.5t44.5 -155.5t122.5 -54.5z" />
    <glyph glyph-name="Oacute" unicode="&#xd3;" horiz-adv-x="740" 
d="M296 748l64 137h178l-109 -137h-133zM370 -10q-149 0 -241 96t-92 264t92 264t241 96t241 -96t92 -264t-92 -264t-241 -96zM370 140q78 0 122.5 54.5t44.5 155.5t-44.5 155.5t-122.5 54.5t-122.5 -54.5t-44.5 -155.5t44.5 -155.5t122.5 -54.5z" />
    <glyph glyph-name="Ocircumflex" unicode="&#xd4;" horiz-adv-x="740" 
d="M202 748l86 137h164l86 -137h-125l-43 53l-43 -53h-125zM370 -10q-149 0 -241 96t-92 264t92 264t241 96t241 -96t92 -264t-92 -264t-241 -96zM370 140q78 0 122.5 54.5t44.5 155.5t-44.5 155.5t-122.5 54.5t-122.5 -54.5t-44.5 -155.5t44.5 -155.5t122.5 -54.5z" />
    <glyph glyph-name="Otilde" unicode="&#xd5;" horiz-adv-x="740" 
d="M252 746l-75 72q51 85 127 85q30 0 72 -18t53 -18q34 0 59 43l75 -72q-51 -85 -127 -85q-26 0 -68 18t-57 18q-34 0 -59 -43zM370 -10q-149 0 -241 96t-92 264t92 264t241 96t241 -96t92 -264t-92 -264t-241 -96zM370 140q78 0 122.5 54.5t44.5 155.5t-44.5 155.5
t-122.5 54.5t-122.5 -54.5t-44.5 -155.5t44.5 -155.5t122.5 -54.5z" />
    <glyph glyph-name="Odieresis" unicode="&#xd6;" horiz-adv-x="740" 
d="M270 742q-36 0 -60 22.5t-24 56.5t24 56.5t60 22.5t59.5 -22.5t23.5 -56.5t-23.5 -56.5t-59.5 -22.5zM471 742q-36 0 -60 22.5t-24 56.5t24 56.5t60 22.5t59.5 -22.5t23.5 -56.5t-23.5 -56.5t-59.5 -22.5zM370 -10q-149 0 -241 96t-92 264t92 264t241 96t241 -96t92 -264
t-92 -264t-241 -96zM370 140q78 0 122.5 54.5t44.5 155.5t-44.5 155.5t-122.5 54.5t-122.5 -54.5t-44.5 -155.5t44.5 -155.5t122.5 -54.5z" />
    <glyph glyph-name="multiply" unicode="&#xd7;" horiz-adv-x="484" 
d="M448 444l-110 -110l110 -110l-96 -96l-110 110l-110 -110l-96 96l110 110l-110 110l96 96l110 -110l110 110z" />
    <glyph glyph-name="Oslash" unicode="&#xd8;" horiz-adv-x="740" 
d="M609 616q94 -97 94 -266q0 -168 -92 -264t-241 -96q-68 0 -126 21l-29 -49l-119 65l35 57q-94 99 -94 266q0 168 92 264t241 96q68 0 125 -21l29 49l119 -65zM203 350q0 -64 19 -113l192 318q-23 5 -44 5q-78 0 -122.5 -54.5t-44.5 -155.5zM370 140q78 0 122.5 54.5
t44.5 155.5q0 66 -20 114l-192 -319q23 -5 45 -5z" />
    <glyph glyph-name="Ugrave" unicode="&#xd9;" horiz-adv-x="708" 
d="M295 748l-109 137h178l64 -137h-133zM354 -10q-135 0 -212 73.5t-77 223.5v413h158v-387q0 -95 31.5 -134t99.5 -39q65 0 98 40t33 134v386h158v-413q0 -150 -77 -223.5t-212 -73.5z" />
    <glyph glyph-name="Uacute" unicode="&#xda;" horiz-adv-x="708" 
d="M280 748l64 137h178l-109 -137h-133zM354 -10q-135 0 -212 73.5t-77 223.5v413h158v-387q0 -95 31.5 -134t99.5 -39q65 0 98 40t33 134v386h158v-413q0 -150 -77 -223.5t-212 -73.5z" />
    <glyph glyph-name="Ucircumflex" unicode="&#xdb;" horiz-adv-x="708" 
d="M186 748l86 137h164l86 -137h-125l-43 53l-43 -53h-125zM354 -10q-135 0 -212 73.5t-77 223.5v413h158v-387q0 -95 31.5 -134t99.5 -39q65 0 98 40t33 134v386h158v-413q0 -150 -77 -223.5t-212 -73.5z" />
    <glyph glyph-name="Udieresis" unicode="&#xdc;" horiz-adv-x="708" 
d="M254 742q-36 0 -60 22.5t-24 56.5t24 56.5t60 22.5t59.5 -22.5t23.5 -56.5t-23.5 -56.5t-59.5 -22.5zM455 742q-36 0 -60 22.5t-24 56.5t24 56.5t60 22.5t59.5 -22.5t23.5 -56.5t-23.5 -56.5t-59.5 -22.5zM354 -10q-135 0 -212 73.5t-77 223.5v413h158v-387
q0 -95 31.5 -134t99.5 -39q65 0 98 40t33 134v386h158v-413q0 -150 -77 -223.5t-212 -73.5z" />
    <glyph glyph-name="Yacute" unicode="&#xdd;" horiz-adv-x="606" 
d="M471 885l-109 -137h-133l64 137h178zM602 700l-220 -463v-237h-158v237l-220 463h170l129 -299l129 299h170z" />
    <glyph glyph-name="Thorn" unicode="&#xde;" horiz-adv-x="611" 
d="M348 576q120 0 180.5 -60t60.5 -166t-60.5 -166t-180.5 -60h-122v-124h-158v700h158v-124h122zM348 274q81 0 81 76t-81 76h-122v-152h122z" />
    <glyph glyph-name="germandbls" unicode="&#xdf;" horiz-adv-x="656" 
d="M440 380q0 -16 20 -28.5t48.5 -24.5t57 -29.5t48.5 -51.5t20 -81q0 -78 -50 -126.5t-130 -48.5q-118 0 -190 101l112 78q32 -39 73 -39q17 0 26.5 8.5t9.5 21.5q0 16 -20.5 30t-50 27t-59 30t-50 48.5t-20.5 72.5q0 31 15.5 59.5t33.5 46t33.5 36.5t15.5 33q0 37 -58 37
q-81 0 -81 -100v-480h-154v380h-80v135h80q0 91 61.5 148t179.5 57q97 0 153.5 -46t56.5 -117q0 -36 -16 -67.5t-34.5 -49t-34.5 -34t-16 -26.5z" />
    <glyph glyph-name="agrave" unicode="&#xe0;" horiz-adv-x="525" 
d="M336 563h-133l-109 137h178zM257 525q106 0 161 -58.5t55 -187.5v-279h-128l-15 76q-56 -86 -155 -86q-64 0 -104.5 41.5t-40.5 112.5q0 174 292 178q-2 37 -20 52t-54 15q-62 0 -88 -50l-116 67q67 119 213 119zM238 116q85 0 85 101v8h-24q-115 0 -115 -62
q0 -47 54 -47z" />
    <glyph glyph-name="aacute" unicode="&#xe1;" horiz-adv-x="525" 
d="M430 700l-109 -137h-133l64 137h178zM257 525q106 0 161 -58.5t55 -187.5v-279h-128l-15 76q-56 -86 -155 -86q-64 0 -104.5 41.5t-40.5 112.5q0 174 292 178q-2 37 -20 52t-54 15q-62 0 -88 -50l-116 67q67 119 213 119zM238 116q85 0 85 101v8h-24q-115 0 -115 -62
q0 -47 54 -47z" />
    <glyph glyph-name="acircumflex" unicode="&#xe2;" horiz-adv-x="525" 
d="M262 616l-43 -53h-125l86 137h164l86 -137h-125zM257 525q106 0 161 -58.5t55 -187.5v-279h-128l-15 76q-56 -86 -155 -86q-64 0 -104.5 41.5t-40.5 112.5q0 174 292 178q-2 37 -20 52t-54 15q-62 0 -88 -50l-116 67q67 119 213 119zM238 116q85 0 85 101v8h-24
q-115 0 -115 -62q0 -47 54 -47z" />
    <glyph glyph-name="atilde" unicode="&#xe3;" horiz-adv-x="525" 
d="M203 604q-34 0 -59 -43l-75 72q51 85 127 85q30 0 72 -18t53 -18q34 0 59 43l75 -72q-51 -85 -127 -85q-26 0 -68 18t-57 18zM257 525q106 0 161 -58.5t55 -187.5v-279h-128l-15 76q-56 -86 -155 -86q-64 0 -104.5 41.5t-40.5 112.5q0 174 292 178q-2 37 -20 52t-54 15
q-62 0 -88 -50l-116 67q67 119 213 119zM238 116q85 0 85 101v8h-24q-115 0 -115 -62q0 -47 54 -47z" />
    <glyph glyph-name="adieresis" unicode="&#xe4;" horiz-adv-x="525" 
d="M162 557q-36 0 -60 22.5t-24 56.5t24 56.5t60 22.5t59.5 -22.5t23.5 -56.5t-23.5 -56.5t-59.5 -22.5zM363 557q-36 0 -60 22.5t-24 56.5t24 56.5t60 22.5t59.5 -22.5t23.5 -56.5t-23.5 -56.5t-59.5 -22.5zM257 525q106 0 161 -58.5t55 -187.5v-279h-128l-15 76
q-56 -86 -155 -86q-64 0 -104.5 41.5t-40.5 112.5q0 174 292 178q-2 37 -20 52t-54 15q-62 0 -88 -50l-116 67q67 119 213 119zM238 116q85 0 85 101v8h-24q-115 0 -115 -62q0 -47 54 -47z" />
    <glyph glyph-name="aring" unicode="&#xe5;" horiz-adv-x="525" 
d="M262 548q-43 0 -70 25t-27 66t27 66t70 25t70 -25t27 -66t-27 -66t-70 -25zM262 668q-31 0 -31 -29t31 -29t31 29t-31 29zM257 525q106 0 161 -58.5t55 -187.5v-279h-128l-15 76q-56 -86 -155 -86q-64 0 -104.5 41.5t-40.5 112.5q0 174 292 178q-2 37 -20 52t-54 15
q-62 0 -88 -50l-116 67q67 119 213 119zM238 116q85 0 85 101v8h-24q-115 0 -115 -62q0 -47 54 -47z" />
    <glyph glyph-name="ae" unicode="&#xe6;" horiz-adv-x="839" 
d="M585 122q56 0 81 52l139 -31q-30 -79 -90.5 -116t-134.5 -37q-139 0 -202 95q-55 -95 -184 -95q-77 0 -120.5 40.5t-43.5 113.5q0 167 281 167h11q-2 41 -20 59.5t-54 18.5q-62 0 -88 -50l-116 67q67 119 213 119q104 0 156 -69q52 69 167 69q97 0 163 -58.5t66 -171.5
q0 -41 -10 -82h-319q16 -91 105 -91zM580 393q-83 0 -99 -86h176q1 41 -20.5 63.5t-56.5 22.5zM238 116q85 0 85 101v2h-24q-62 0 -88.5 -13.5t-26.5 -42.5q0 -47 54 -47z" />
    <glyph glyph-name="ccedilla" unicode="&#xe7;" horiz-adv-x="516" 
d="M506 174q-41 -145 -158 -176l-30 -128h-148l48 127q-84 19 -135 87t-51 174q0 125 70.5 196t178.5 71q81 0 138 -43.5t67 -142.5l-139 -29q-11 75 -66 75q-42 0 -66.5 -33t-24.5 -95t24.5 -94.5t66.5 -32.5q33 0 53 17.5t33 57.5z" />
    <glyph glyph-name="egrave" unicode="&#xe8;" horiz-adv-x="544" 
d="M357 563h-133l-109 137h178zM290 122q56 0 81 52l139 -31q-30 -79 -90.5 -116t-134.5 -37q-115 0 -184 73t-69 195q0 121 69 194t184 73q97 0 163 -58.5t66 -171.5q0 -41 -10 -82h-319q16 -91 105 -91zM285 393q-84 0 -99 -88h176q1 43 -20.5 65.5t-56.5 22.5z" />
    <glyph glyph-name="eacute" unicode="&#xe9;" horiz-adv-x="544" 
d="M451 700l-109 -137h-133l64 137h178zM290 122q56 0 81 52l139 -31q-30 -79 -90.5 -116t-134.5 -37q-115 0 -184 73t-69 195q0 121 69 194t184 73q97 0 163 -58.5t66 -171.5q0 -41 -10 -82h-319q16 -91 105 -91zM285 393q-84 0 -99 -88h176q1 43 -20.5 65.5t-56.5 22.5z
" />
    <glyph glyph-name="ecircumflex" unicode="&#xea;" horiz-adv-x="544" 
d="M283 616l-43 -53h-125l86 137h164l86 -137h-125zM290 122q56 0 81 52l139 -31q-30 -79 -90.5 -116t-134.5 -37q-115 0 -184 73t-69 195q0 121 69 194t184 73q97 0 163 -58.5t66 -171.5q0 -41 -10 -82h-319q16 -91 105 -91zM285 393q-84 0 -99 -88h176q1 43 -20.5 65.5
t-56.5 22.5z" />
    <glyph glyph-name="edieresis" unicode="&#xeb;" horiz-adv-x="544" 
d="M183 557q-36 0 -60 22.5t-24 56.5t24 56.5t60 22.5t59.5 -22.5t23.5 -56.5t-23.5 -56.5t-59.5 -22.5zM384 557q-36 0 -60 22.5t-24 56.5t24 56.5t60 22.5t59.5 -22.5t23.5 -56.5t-23.5 -56.5t-59.5 -22.5zM290 122q56 0 81 52l139 -31q-30 -79 -90.5 -116t-134.5 -37
q-115 0 -184 73t-69 195q0 121 69 194t184 73q97 0 163 -58.5t66 -171.5q0 -41 -10 -82h-319q16 -91 105 -91zM285 393q-84 0 -99 -88h176q1 43 -20.5 65.5t-56.5 22.5z" />
    <glyph glyph-name="igrave" unicode="&#xec;" horiz-adv-x="268" 
d="M75 563l-109 137h178l64 -137h-133zM57 0v515h154v-515h-154z" />
    <glyph glyph-name="iacute" unicode="&#xed;" horiz-adv-x="268" 
d="M60 563l64 137h178l-109 -137h-133zM57 0v515h154v-515h-154z" />
    <glyph glyph-name="icircumflex" unicode="&#xee;" horiz-adv-x="268" 
d="M-34 563l86 137h164l86 -137h-125l-43 53l-43 -53h-125zM57 0v515h154v-515h-154z" />
    <glyph glyph-name="idieresis" unicode="&#xef;" horiz-adv-x="268" 
d="M34 557q-36 0 -60 22.5t-24 56.5t24 56.5t60 22.5t59.5 -22.5t23.5 -56.5t-23.5 -56.5t-59.5 -22.5zM235 557q-36 0 -60 22.5t-24 56.5t24 56.5t60 22.5t59.5 -22.5t23.5 -56.5t-23.5 -56.5t-59.5 -22.5zM57 0v515h154v-515h-154z" />
    <glyph glyph-name="eth" unicode="&#xf0;" horiz-adv-x="566" 
d="M460 576q71 -96 71 -241q0 -170 -68 -257.5t-185 -87.5q-115 0 -180.5 65t-65.5 171t60.5 165t142.5 59q86 0 139 -57l-2 13q-12 63 -46 104l-94 -47l-40 80l53 27q-40 18 -86 26l45 124q110 -18 189 -76l88 44l40 -81zM274 138q41 0 65.5 24t24.5 64t-24.5 64t-65.5 24
q-40 0 -63 -24t-23 -64t23 -64t63 -24z" />
    <glyph glyph-name="ntilde" unicode="&#xf1;" horiz-adv-x="585" 
d="M176 561l-75 72q51 85 127 85q30 0 72 -18t53 -18q34 0 59 43l75 -72q-51 -85 -127 -85q-26 0 -68 18t-57 18q-34 0 -59 -43zM57 0v515h131l14 -92q35 102 166 102q165 0 165 -194v-331h-154v285q0 54 -19 77t-61 23t-65 -24.5t-23 -85.5v-275h-154z" />
    <glyph glyph-name="ograve" unicode="&#xf2;" horiz-adv-x="572" 
d="M227 563l-109 137h178l64 -137h-133zM286 -10q-112 0 -183 71t-71 197q0 125 71 196t183 71t183 -71t71 -196q0 -126 -71 -197t-183 -71zM286 130q45 0 70.5 32.5t25.5 94.5q0 63 -25.5 95.5t-70.5 32.5t-70.5 -32.5t-25.5 -95.5q0 -62 25.5 -94.5t70.5 -32.5z" />
    <glyph glyph-name="oacute" unicode="&#xf3;" horiz-adv-x="572" 
d="M212 563l64 137h178l-109 -137h-133zM286 -10q-112 0 -183 71t-71 197q0 125 71 196t183 71t183 -71t71 -196q0 -126 -71 -197t-183 -71zM286 130q45 0 70.5 32.5t25.5 94.5q0 63 -25.5 95.5t-70.5 32.5t-70.5 -32.5t-25.5 -95.5q0 -62 25.5 -94.5t70.5 -32.5z" />
    <glyph glyph-name="ocircumflex" unicode="&#xf4;" horiz-adv-x="572" 
d="M118 563l86 137h164l86 -137h-125l-43 53l-43 -53h-125zM286 -10q-112 0 -183 71t-71 197q0 125 71 196t183 71t183 -71t71 -196q0 -126 -71 -197t-183 -71zM286 130q45 0 70.5 32.5t25.5 94.5q0 63 -25.5 95.5t-70.5 32.5t-70.5 -32.5t-25.5 -95.5q0 -62 25.5 -94.5
t70.5 -32.5z" />
    <glyph glyph-name="otilde" unicode="&#xf5;" horiz-adv-x="572" 
d="M168 561l-75 72q51 85 127 85q30 0 72 -18t53 -18q34 0 59 43l75 -72q-51 -85 -127 -85q-26 0 -68 18t-57 18q-34 0 -59 -43zM286 -10q-112 0 -183 71t-71 197q0 125 71 196t183 71t183 -71t71 -196q0 -126 -71 -197t-183 -71zM286 130q45 0 70.5 32.5t25.5 94.5
q0 63 -25.5 95.5t-70.5 32.5t-70.5 -32.5t-25.5 -95.5q0 -62 25.5 -94.5t70.5 -32.5z" />
    <glyph glyph-name="odieresis" unicode="&#xf6;" horiz-adv-x="572" 
d="M186 557q-36 0 -60 22.5t-24 56.5t24 56.5t60 22.5t59.5 -22.5t23.5 -56.5t-23.5 -56.5t-59.5 -22.5zM387 557q-36 0 -60 22.5t-24 56.5t24 56.5t60 22.5t59.5 -22.5t23.5 -56.5t-23.5 -56.5t-59.5 -22.5zM286 -10q-112 0 -183 71t-71 197q0 125 71 196t183 71t183 -71
t71 -196q0 -126 -71 -197t-183 -71zM286 130q45 0 70.5 32.5t25.5 94.5q0 63 -25.5 95.5t-70.5 32.5t-70.5 -32.5t-25.5 -95.5q0 -62 25.5 -94.5t70.5 -32.5z" />
    <glyph glyph-name="divide" unicode="&#xf7;" horiz-adv-x="538" 
d="M270 457q-40 0 -66 24.5t-26 62.5t26 62.5t66 24.5t66 -24.5t26 -62.5t-26 -62.5t-66 -24.5zM45 266v136h448v-136h-448zM270 37q-40 0 -66 24.5t-26 62.5t26 62.5t66 24.5t66 -24.5t26 -62.5t-26 -62.5t-66 -24.5z" />
    <glyph glyph-name="oslash" unicode="&#xf8;" horiz-adv-x="578" 
d="M449 474q94 -71 94 -216q0 -126 -71 -197t-183 -71q-37 0 -72 9l-25 -51l-89 40l26 53q-94 73 -94 217q0 125 71 196t183 71q37 0 72 -9l25 51l89 -40zM188 257q0 -42 11 -72l100 205h-10q-48 0 -74.5 -33.5t-26.5 -99.5zM289 125q48 0 74.5 33t26.5 99q0 43 -12 72
l-99 -204h10z" />
    <glyph glyph-name="ugrave" unicode="&#xf9;" horiz-adv-x="585" 
d="M231 563l-109 137h178l64 -137h-133zM217 -10q-165 0 -165 194v331h154v-285q0 -54 19 -77t60 -23q43 0 66 24.5t23 85.5v275h154v-515h-131l-14 81q-23 -45 -67.5 -68t-98.5 -23z" />
    <glyph glyph-name="uacute" unicode="&#xfa;" horiz-adv-x="585" 
d="M216 563l64 137h178l-109 -137h-133zM217 -10q-165 0 -165 194v331h154v-285q0 -54 19 -77t60 -23q43 0 66 24.5t23 85.5v275h154v-515h-131l-14 81q-23 -45 -67.5 -68t-98.5 -23z" />
    <glyph glyph-name="ucircumflex" unicode="&#xfb;" horiz-adv-x="585" 
d="M122 563l86 137h164l86 -137h-125l-43 53l-43 -53h-125zM217 -10q-165 0 -165 194v331h154v-285q0 -54 19 -77t60 -23q43 0 66 24.5t23 85.5v275h154v-515h-131l-14 81q-23 -45 -67.5 -68t-98.5 -23z" />
    <glyph glyph-name="udieresis" unicode="&#xfc;" horiz-adv-x="585" 
d="M190 557q-36 0 -60 22.5t-24 56.5t24 56.5t60 22.5t59.5 -22.5t23.5 -56.5t-23.5 -56.5t-59.5 -22.5zM391 557q-36 0 -60 22.5t-24 56.5t24 56.5t60 22.5t59.5 -22.5t23.5 -56.5t-23.5 -56.5t-59.5 -22.5zM217 -10q-165 0 -165 194v331h154v-285q0 -54 19 -77t60 -23
q43 0 66 24.5t23 85.5v275h154v-515h-131l-14 81q-23 -45 -67.5 -68t-98.5 -23z" />
    <glyph glyph-name="yacute" unicode="&#xfd;" horiz-adv-x="532" 
d="M190 563l64 137h178l-109 -137h-133zM120 -165l64 181l-180 499h164l96 -336l100 336h164l-253 -680h-155z" />
    <glyph glyph-name="thorn" unicode="&#xfe;" horiz-adv-x="593" 
d="M57 -165v865h154v-257q41 82 152 82q93 0 144 -66t51 -201q0 -131 -55.5 -199.5t-139.5 -68.5q-97 0 -152 78v-233h-154zM305 130q95 0 95 128q0 127 -95 127q-97 0 -97 -132q0 -123 97 -123z" />
    <glyph glyph-name="ydieresis" unicode="&#xff;" horiz-adv-x="532" 
d="M164 557q-36 0 -60 22.5t-24 56.5t24 56.5t60 22.5t59.5 -22.5t23.5 -56.5t-23.5 -56.5t-59.5 -22.5zM365 557q-36 0 -60 22.5t-24 56.5t24 56.5t60 22.5t59.5 -22.5t23.5 -56.5t-23.5 -56.5t-59.5 -22.5zM120 -165l64 181l-180 499h164l96 -336l100 336h164l-253 -680
h-155z" />
    <glyph glyph-name="dotlessi" unicode="&#x131;" horiz-adv-x="268" 
d="M57 0v515h154v-515h-154z" />
    <glyph glyph-name="Lslash" unicode="&#x141;" horiz-adv-x="584" 
d="M245 150h317v-150h-475v195l-80 -46v150l80 46v355h158v-264l137 79v-150l-137 -79v-136z" />
    <glyph glyph-name="lslash" unicode="&#x142;" horiz-adv-x="346" 
d="M334 520v-150l-88 -51v-319h-154v229l-80 -46v150l80 46v321h154v-231z" />
    <glyph glyph-name="OE" unicode="&#x152;" horiz-adv-x="1037" 
d="M364 -10q-140 0 -233.5 97t-93.5 263t93.5 263t233.5 97q102 0 169 -54v44h466v-150h-308v-118h274v-150h-274v-132h314v-150h-472v44q-67 -54 -169 -54zM364 140q78 0 119.5 54t41.5 156t-42 156t-119 54q-74 0 -117.5 -55t-43.5 -155q0 -101 43.5 -155.5t117.5 -54.5z
" />
    <glyph glyph-name="oe" unicode="&#x153;" horiz-adv-x="902" 
d="M286 -10q-112 0 -183 71t-71 197q0 125 71 196t183 71q53 0 101 -21t78 -58q30 36 77 57.5t101 21.5q97 0 163 -58.5t66 -171.5q0 -41 -10 -82h-319q16 -91 105 -91q56 0 81 52l139 -31q-30 -79 -90.5 -116t-134.5 -37q-54 0 -101 21.5t-77 57.5q-30 -37 -78 -58
t-101 -21zM544 305h176q1 43 -20.5 65.5t-56.5 22.5q-84 0 -99 -88zM286 130q45 0 70.5 32.5t25.5 94.5q0 63 -25.5 95.5t-70.5 32.5t-70.5 -32.5t-25.5 -95.5q0 -62 25.5 -94.5t70.5 -32.5z" />
    <glyph glyph-name="Scaron" unicode="&#x160;" horiz-adv-x="572" 
d="M122 885h125l43 -53l43 53h125l-86 -137h-164zM293 -10q-161 0 -267 137l126 96q69 -83 150 -83q38 0 60 16.5t22 42.5q0 25 -19 40.5t-63 27.5l-68 19q-185 51 -185 216q0 95 67.5 151.5t174.5 56.5q165 0 232 -154l-115 -87q-15 44 -47 68.5t-70 24.5q-39 0 -61.5 -16
t-22.5 -42q0 -48 64 -66l75 -21q102 -29 151 -78t49 -128q0 -99 -69.5 -160t-183.5 -61z" />
    <glyph glyph-name="scaron" unicode="&#x161;" horiz-adv-x="456" 
d="M56 700h125l43 -53l43 53h125l-86 -137h-164zM231 -10q-65 0 -125 30.5t-91 79.5l106 76q54 -58 119 -58q23 0 37 9t14 22t-7.5 20t-27.5 13l-67 18q-89 24 -122.5 65t-33.5 99q0 74 55.5 117.5t129.5 43.5q131 0 193 -103l-105 -76q-30 51 -83 51q-50 0 -50 -30
q0 -22 33 -30l69 -18q72 -19 114.5 -56.5t42.5 -107.5q0 -76 -56.5 -120.5t-144.5 -44.5z" />
    <glyph glyph-name="Ydieresis" unicode="&#x178;" horiz-adv-x="606" 
d="M203 742q-36 0 -60 22.5t-24 56.5t24 56.5t60 22.5t59.5 -22.5t23.5 -56.5t-23.5 -56.5t-59.5 -22.5zM404 742q-36 0 -60 22.5t-24 56.5t24 56.5t60 22.5t59.5 -22.5t23.5 -56.5t-23.5 -56.5t-59.5 -22.5zM602 700l-220 -463v-237h-158v237l-220 463h170l129 -299
l129 299h170z" />
    <glyph glyph-name="Zcaron" unicode="&#x17d;" horiz-adv-x="531" 
d="M98 885h125l43 -53l43 53h125l-86 -137h-164zM23 0v136l285 418h-266v146h455v-138l-285 -416h296v-146h-485z" />
    <glyph glyph-name="zcaron" unicode="&#x17e;" horiz-adv-x="433" 
d="M49 700h125l43 -53l43 53h125l-86 -137h-164zM20 0v125l217 258h-203v132h369v-125l-217 -258h227v-132h-393z" />
    <glyph glyph-name="florin" unicode="&#x192;" horiz-adv-x="544" 
d="M437 588q-66 0 -75 -86l-8 -82h138v-119h-150l-26 -261q-22 -215 -209 -215q-87 0 -153 48l62 107q32 -23 69 -23q66 0 75 86l26 258h-102v119h114l8 85q22 215 209 215q87 0 153 -48l-62 -107q-32 23 -69 23z" />
    <glyph glyph-name="circumflex" unicode="&#x2c6;" horiz-adv-x="372" 
d="M18 563l86 137h164l86 -137h-125l-43 53l-43 -53h-125z" />
    <glyph glyph-name="caron" unicode="&#x2c7;" horiz-adv-x="372" 
d="M18 700h125l43 -53l43 53h125l-86 -137h-164z" />
    <glyph glyph-name="uni02C9" unicode="&#x2c9;" horiz-adv-x="265" 
d="M0 580v110h265v-110h-265z" />
    <glyph glyph-name="breve" unicode="&#x2d8;" horiz-adv-x="392" 
d="M196 563q-151 0 -151 137h115q0 -43 36 -43t36 43h115q0 -137 -151 -137z" />
    <glyph glyph-name="dotaccent" unicode="&#x2d9;" horiz-adv-x="276" 
d="M138 551q-40 0 -66 24.5t-26 62.5t26 62.5t66 24.5t66 -24.5t26 -62.5t-26 -62.5t-66 -24.5z" />
    <glyph glyph-name="ring" unicode="&#x2da;" horiz-adv-x="286" 
d="M143 548q-43 0 -70 25t-27 66t27 66t70 25t70 -25t27 -66t-27 -66t-70 -25zM143 610q31 0 31 29t-31 29t-31 -29t31 -29z" />
    <glyph glyph-name="ogonek" unicode="&#x2db;" horiz-adv-x="284" 
d="M150 -175q-46 0 -74 25t-28 66q0 50 42 84h115q-52 -21 -52 -54q0 -21 21 -21q17 0 34 13l34 -85q-41 -28 -92 -28z" />
    <glyph glyph-name="tilde" unicode="&#x2dc;" horiz-adv-x="482" 
d="M123 561l-75 72q51 85 127 85q30 0 72 -18t53 -18q34 0 59 43l75 -72q-51 -85 -127 -85q-26 0 -68 18t-57 18q-34 0 -59 -43z" />
    <glyph glyph-name="hungarumlaut" unicode="&#x2dd;" horiz-adv-x="494" 
d="M18 563l64 137h178l-109 -137h-133zM240 563l64 137h178l-109 -137h-133z" />
    <glyph glyph-name="gravecomb" unicode="&#x300;" 
d="M-133 563l-109 137h178l64 -137h-133z" />
    <glyph glyph-name="acutecomb" unicode="&#x301;" 
d="M-242 563l64 137h178l-109 -137h-133z" />
    <glyph glyph-name="uni0302" unicode="&#x302;" 
d="M-336 563l86 137h164l86 -137h-125l-43 53l-43 -53h-125z" />
    <glyph glyph-name="tildecomb" unicode="&#x303;" 
d="M-311 561l-75 72q51 85 127 85q30 0 72 -18t53 -18q34 0 59 43l75 -72q-51 -85 -127 -85q-26 0 -68 18t-57 18q-34 0 -59 -43z" />
    <glyph glyph-name="uni0308" unicode="&#x308;" 
d="M-284 557q-36 0 -60 22.5t-24 56.5t24 56.5t60 22.5t59.5 -22.5t23.5 -56.5t-23.5 -56.5t-59.5 -22.5zM-83 557q-36 0 -60 22.5t-24 56.5t24 56.5t60 22.5t59.5 -22.5t23.5 -56.5t-23.5 -56.5t-59.5 -22.5z" />
    <glyph glyph-name="uni030A" unicode="&#x30a;" 
d="M-97 548q-43 0 -70 25t-27 66t27 66t70 25t70 -25t27 -66t-27 -66t-70 -25zM-97 610q31 0 31 29t-31 29t-31 -29t31 -29z" />
    <glyph glyph-name="uni030C" unicode="&#x30c;" 
d="M-336 700h125l43 -53l43 53h125l-86 -137h-164z" />
    <glyph glyph-name="uni0327" unicode="&#x327;" 
d="M-180 -130l49 130h129l-30 -130h-148z" />
    <glyph glyph-name="uni0337" unicode="&#x337;" 
d="M-322 182v150l322 187v-150z" />
    <glyph glyph-name="uni0338" unicode="&#x338;" 
d="M-276 -52l-89 40l283 579l89 -40z" />
    <glyph glyph-name="pi" unicode="&#x3c0;" horiz-adv-x="724" 
d="M684 380h-91v-161q0 -47 22.5 -67.5t68.5 -20.5l-24 -136q-121 0 -171 52t-50 183v150h-156v-380h-154v380h-91v135h646v-135z" />
    <glyph glyph-name="endash" unicode="&#x2013;" horiz-adv-x="600" 
d="M45 238v136h510v-136h-510z" />
    <glyph glyph-name="emdash" unicode="&#x2014;" horiz-adv-x="840" 
d="M45 238v136h750v-136h-750z" />
    <glyph glyph-name="quoteleft" unicode="&#x2018;" horiz-adv-x="287" 
d="M159 710l50 -52q-39 -31 -62 -61t-23 -69q19 29 57 29q26 0 46 -20.5t20 -51.5q0 -40 -26 -67t-72 -27q-51 0 -77 36t-26 85q0 114 113 198z" />
    <glyph glyph-name="quoteright" unicode="&#x2019;" horiz-adv-x="287" 
d="M128 391l-50 52q39 31 62 61t23 69q-19 -29 -57 -29q-26 0 -46 20.5t-20 51.5q0 40 26 67t72 27q51 0 77 -36t26 -85q0 -114 -113 -198z" />
    <glyph glyph-name="quotesinglbase" unicode="&#x201a;" horiz-adv-x="287" 
d="M128 -163l-50 52q39 31 62 61t23 69q-19 -29 -57 -29q-26 0 -46 20.5t-20 51.5q0 40 26 67t72 27q51 0 77 -36t26 -85q0 -114 -113 -198z" />
    <glyph glyph-name="quotedblleft" unicode="&#x201c;" horiz-adv-x="529" 
d="M159 708l50 -52q-39 -31 -62 -61t-23 -69q19 29 57 29q26 0 46 -20.5t20 -51.5q0 -40 -26 -67t-72 -27q-51 0 -77 36t-26 85q0 114 113 198zM401 708l50 -52q-39 -31 -62 -61t-23 -69q19 29 57 29q26 0 46 -20.5t20 -51.5q0 -40 -26 -67t-72 -27q-51 0 -77 36t-26 85
q0 114 113 198z" />
    <glyph glyph-name="quotedblright" unicode="&#x201d;" horiz-adv-x="529" 
d="M128 391l-50 52q39 31 62 61t23 69q-19 -29 -57 -29q-26 0 -46 20.5t-20 51.5q0 40 26 67t72 27q51 0 77 -36t26 -85q0 -114 -113 -198zM370 391l-50 52q39 31 62 61t23 69q-19 -29 -57 -29q-26 0 -46 20.5t-20 51.5q0 40 26 67t72 27q51 0 77 -36t26 -85
q0 -114 -113 -198z" />
    <glyph glyph-name="quotedblbase" unicode="&#x201e;" horiz-adv-x="529" 
d="M128 -163l-50 52q39 31 62 61t23 69q-19 -29 -57 -29q-26 0 -46 20.5t-20 51.5q0 40 26 67t72 27q51 0 77 -36t26 -85q0 -114 -113 -198zM370 -163l-50 52q39 31 62 61t23 69q-19 -29 -57 -29q-26 0 -46 20.5t-20 51.5q0 40 26 67t72 27q51 0 77 -36t26 -85
q0 -114 -113 -198z" />
    <glyph glyph-name="dagger" unicode="&#x2020;" horiz-adv-x="524" 
d="M494 515v-144h-155l-1 -486h-152l-1 486h-155v144h155v185h154v-185h155z" />
    <glyph glyph-name="daggerdbl" unicode="&#x2021;" horiz-adv-x="524" 
d="M494 371h-155l-1 -157h156v-144h-156v-185h-152v185h-156v144h156l-1 157h-155v144h155v185h154v-185h155v-144z" />
    <glyph glyph-name="bullet" unicode="&#x2022;" horiz-adv-x="396" 
d="M198 176q-60 0 -99 36.5t-39 93.5t39 93.5t99 36.5t99 -36.5t39 -93.5t-39 -93.5t-99 -36.5z" />
    <glyph glyph-name="ellipsis" unicode="&#x2026;" horiz-adv-x="756" 
d="M135 -10q-40 0 -66 24.5t-26 62.5t26 62.5t66 24.5t66 -24.5t26 -62.5t-26 -62.5t-66 -24.5zM378 -10q-40 0 -66 24.5t-26 62.5t26 62.5t66 24.5t66 -24.5t26 -62.5t-26 -62.5t-66 -24.5zM621 -10q-40 0 -66 24.5t-26 62.5t26 62.5t66 24.5t66 -24.5t26 -62.5t-26 -62.5
t-66 -24.5z" />
    <glyph glyph-name="perthousand" unicode="&#x2030;" horiz-adv-x="1115" 
d="M179 387q-72 -1 -118.5 44.5t-46.5 116.5q0 72 46 117t119 45q72 0 118.5 -45t46.5 -117q0 -70 -46.5 -115t-118.5 -46zM146 0l-76 64l522 636l76 -62zM179 484q27 -1 42.5 15.5t15.5 48.5t-15.5 48.5t-42.5 16.5q-60 0 -60 -65q0 -62 60 -64zM563 -10
q-72 -1 -118.5 44.5t-46.5 116.5q0 72 46 117t119 45q72 0 118.5 -45t46.5 -117q0 -70 -46.5 -115t-118.5 -46zM936 -10q-72 -1 -118.5 44.5t-46.5 116.5q0 72 46 117t119 45q72 0 118.5 -45t46.5 -117q0 -70 -46.5 -115t-118.5 -46zM564 87q27 -1 42.5 15.5t15.5 48.5
t-15.5 48.5t-42.5 16.5q-60 0 -60 -65q0 -62 60 -64zM937 87q27 -1 42.5 15.5t15.5 48.5t-15.5 48.5t-42.5 16.5q-60 0 -60 -65q0 -62 60 -64z" />
    <glyph glyph-name="guilsinglleft" unicode="&#x2039;" horiz-adv-x="389" 
d="M187 19l-149 238l149 238h164l-149 -238l149 -238h-164z" />
    <glyph glyph-name="guilsinglright" unicode="&#x203a;" horiz-adv-x="389" 
d="M202 19h-164l149 238l-149 238h164l149 -238z" />
    <glyph glyph-name="fraction" unicode="&#x2044;" horiz-adv-x="290" 
d="M-78 0l-76 64l522 636l76 -62z" />
    <glyph glyph-name="uni2074" unicode="&#x2074;" horiz-adv-x="358" 
d="M332 574v-81h-52v-78h-94v78h-164v81l159 241h99v-241h52zM116 574h70v115z" />
    <glyph glyph-name="Euro" unicode="&#x20ac;" horiz-adv-x="731" 
d="M557 239l152 -33q-37 -110 -105.5 -163t-177.5 -53q-123 0 -203.5 60t-109.5 173h-87v105h73v22v19h-73v105h88q29 113 111 174.5t201 61.5t186.5 -55t85.5 -174l-150 -33q-23 112 -122 112q-106 0 -145 -86h186v-105h-208v-20v-21h208v-105h-185q39 -83 144 -83
q96 0 131 99z" />
    <glyph glyph-name="uni2113" unicode="&#x2113;" horiz-adv-x="617" 
d="M347 126q55 0 70 74l133 -30q-16 -91 -70.5 -135.5t-128.5 -44.5q-168 0 -214 162q-52 -15 -87 -23l-32 125q46 10 103 26q1 189 87.5 309.5t211.5 120.5q75 0 115 -40.5t40 -108.5q0 -124 -75 -212t-227 -150q10 -42 28 -57.5t46 -15.5zM400 577q-43 0 -86 -66t-49 -174
q87 45 130 98t43 101q0 41 -38 41z" />
    <glyph glyph-name="trademark" unicode="&#x2122;" horiz-adv-x="804" 
d="M310 700v-94h-104v-299h-99v299h-103v94h306zM638 700h122v-393h-91v237l-69 -187h-86l-69 187v-237h-91v393h122l81 -225z" />
    <glyph glyph-name="uni2126" unicode="&#x2126;" horiz-adv-x="747" 
d="M20 0v136h142q-128 103 -128 254q0 147 96 233.5t242 86.5t242 -86.5t96 -233.5q0 -150 -127 -254h144v-136h-303v136q120 91 120 244q0 87 -47.5 136.5t-124.5 49.5t-124.5 -49.5t-47.5 -136.5q0 -155 123 -244v-136h-303z" />
    <glyph glyph-name="estimated" unicode="&#x212e;" horiz-adv-x="778" 
d="M223 332v-245q75 -52 178 -52q104 0 173 46t96 119l46 -10q-37 -95 -118.5 -147.5t-196.5 -52.5q-151 0 -250 95t-99 265t99 265t250 95q87 0 159 -31t119 -99t47 -163q0 -31 -7 -85h-496zM574 617q-70 48 -173 48t-178 -52v-237h351v241z" />
    <glyph glyph-name="uni2153" unicode="&#x2153;" horiz-adv-x="878" 
d="M83 300v284h-65v67l93 49h72v-400h-100zM163 0l-76 64l522 636l76 -62zM700 -5q-95 0 -149 71l74 57q33 -36 75 -36q46 0 46 34q0 38 -50 38h-36v82h26q47 0 47 37q0 35 -36 35q-41 0 -61 -37l-70 56q48 73 137 73q59 0 92.5 -28.5t33.5 -76.5q0 -58 -44 -88
q63 -24 63 -92q0 -56 -40.5 -90.5t-107.5 -34.5z" />
    <glyph glyph-name="partialdiff" unicode="&#x2202;" horiz-adv-x="578" 
d="M264 -10q-106 0 -169 64t-63 162q0 115 62 176.5t156 61.5q90 0 141 -54v5q-1 158 -110 158q-60 0 -98 -55l-110 85q83 117 213 117q116 0 185.5 -82t69.5 -213q0 -220 -78 -322.5t-199 -102.5zM267 138q37 0 62.5 26t25.5 64q0 41 -22 63.5t-59 22.5q-38 0 -62 -26
t-24 -65q0 -41 20.5 -63t58.5 -22z" />
    <glyph glyph-name="uni2206" unicode="&#x2206;" horiz-adv-x="631" 
d="M30 0v136l195 564h180l196 -564v-136h-571zM192 146h246l-123 379z" />
    <glyph glyph-name="product" unicode="&#x220f;" horiz-adv-x="660" 
d="M68 -115v815h524v-815h-158v665h-208v-665h-158z" />
    <glyph glyph-name="summation" unicode="&#x2211;" horiz-adv-x="597" 
d="M56 -115v138l182 271l-182 268v138h485v-146h-295l172 -260l-172 -263h295v-146h-485z" />
    <glyph glyph-name="minus" unicode="&#x2212;" horiz-adv-x="538" 
d="M45 266v136h448v-136h-448z" />
    <glyph glyph-name="uni2215" unicode="&#x2215;" horiz-adv-x="501" 
d="M10 -50l337 800h144l-337 -800h-144z" />
    <glyph glyph-name="uni2219" unicode="&#x2219;" horiz-adv-x="396" 
d="M198 231q-60 0 -99 36.5t-39 93.5t39 93.5t99 36.5t99 -36.5t39 -93.5t-39 -93.5t-99 -36.5z" />
    <glyph glyph-name="radical" unicode="&#x221a;" horiz-adv-x="629" 
d="M464 700h170l-247 -700h-178l-94 268h-103v135h216l70 -225z" />
    <glyph glyph-name="infinity" unicode="&#x221e;" horiz-adv-x="781" 
d="M554 504q79 0 136 -49t57 -143t-57 -143t-136 -49q-95 0 -169 68q-63 -68 -158 -68q-79 0 -136 49t-57 143t57 143t136 49q95 0 169 -68q63 68 158 68zM232 240q42 0 66 25.5t40 70.5q-51 48 -106 48q-31 0 -51 -19t-20 -53t20 -53t51 -19zM549 240q31 0 51 19t20 53
t-20 53t-51 19q-42 0 -66 -25.5t-40 -70.5q51 -48 106 -48z" />
    <glyph glyph-name="integral" unicode="&#x222b;" horiz-adv-x="530" 
d="M111 -175q-87 0 -153 48l62 107q32 -23 69 -23q66 0 75 86l46 462q22 215 209 215q87 0 153 -48l-62 -107q-32 23 -69 23q-66 0 -75 -86l-46 -462q-22 -215 -209 -215z" />
    <glyph glyph-name="approxequal" unicode="&#x2248;" horiz-adv-x="495" 
d="M328 359q-32 0 -82.5 20.5t-67.5 20.5q-41 0 -71 -51l-93 89q61 102 153 102q32 0 82.5 -20.5t67.5 -20.5q41 0 71 51l93 -89q-61 -102 -153 -102zM328 129q-32 0 -82.5 20.5t-67.5 20.5q-41 0 -71 -51l-93 89q61 102 153 102q32 0 82.5 -20.5t67.5 -20.5q41 0 71 51
l93 -89q-61 -102 -153 -102z" />
    <glyph glyph-name="notequal" unicode="&#x2260;" horiz-adv-x="538" 
d="M493 379h-138l-32 -90h170v-136h-220l-38 -104h-140l38 104h-88v136h138l32 90h-170v136h220l38 104h140l-38 -104h88v-136z" />
    <glyph glyph-name="lessequal" unicode="&#x2264;" horiz-adv-x="548" 
d="M474 192l-413 173v144l413 173v-160l-246 -85l246 -85v-160zM46 0v136h448v-136h-448z" />
    <glyph glyph-name="greaterequal" unicode="&#x2265;" horiz-adv-x="548" 
d="M74 192v160l246 85l-246 85v160l413 -173v-144zM502 0h-448v136h448v-136z" />
    <glyph glyph-name="lozenge" unicode="&#x25ca;" horiz-adv-x="576" 
d="M378 700l184 -350l-184 -350h-180l-184 350l184 350h180zM288 140l116 210l-116 210l-116 -210z" />
    <glyph glyph-name="f_j" horiz-adv-x="670" 
d="M535 551q-40 0 -66 24.5t-26 62.5t26 62.5t66 24.5t66 -24.5t26 -62.5t-26 -62.5t-66 -24.5zM305 588q-28 0 -46 -17.5t-16 -55.5h114v-135h-113v-380h-154v380h-80v135h80q0 205 183 205q83 0 134 -30l-47 -119q-26 17 -55 17zM458 115v400h154v-391q0 -111 -36 -174.5
t-126 -124.5l-78 105q44 38 65 80t21 105z" />
    <glyph glyph-name="two.dnom" horiz-adv-x="326" 
d="M37 0v80l71 82q5 6 25.5 28t30 33t19.5 28.5t10 30.5q0 31 -32 31q-40 0 -61 -61l-74 56q18 45 54.5 71t87.5 26q61 0 93 -32.5t32 -79.5q0 -61 -58 -127l-66 -74h127v-92h-259z" />
    <glyph glyph-name="three.dnom" horiz-adv-x="347" 
d="M169 -5q-95 0 -149 71l74 57q33 -36 75 -36q46 0 46 34q0 38 -50 38h-36v82h26q47 0 47 37q0 35 -36 35q-41 0 -61 -37l-70 56q48 73 137 73q59 0 92.5 -28.5t33.5 -76.5q0 -58 -44 -88q63 -24 63 -92q0 -56 -40.5 -90.5t-107.5 -34.5z" />
    <glyph glyph-name="four.dnom" horiz-adv-x="358" 
d="M332 159v-81h-52v-78h-94v78h-164v81l159 241h99v-241h52zM116 159h70v115z" />
    <glyph glyph-name="one.numr" horiz-adv-x="241" 
d="M83 300v284h-65v67l93 49h72v-400h-100z" />
    <glyph glyph-name="two.numr" horiz-adv-x="326" 
d="M37 300v80l71 82q5 6 25.5 28t30 33t19.5 28.5t10 30.5q0 31 -32 31q-40 0 -61 -61l-74 56q18 45 54.5 71t87.5 26q61 0 93 -32.5t32 -79.5q0 -61 -58 -127l-66 -74h127v-92h-259z" />
    <glyph glyph-name="three.numr" horiz-adv-x="347" 
d="M169 295q-95 0 -149 71l74 57q33 -36 75 -36q46 0 46 34q0 38 -50 38h-36v82h26q47 0 47 37q0 35 -36 35q-41 0 -61 -37l-70 56q48 73 137 73q59 0 92.5 -28.5t33.5 -76.5q0 -58 -44 -88q63 -24 63 -92q0 -56 -40.5 -90.5t-107.5 -34.5z" />
    <glyph glyph-name="bullet.case" horiz-adv-x="396" 
d="M198 231q-60 0 -99 36.5t-39 93.5t39 93.5t99 36.5t99 -36.5t39 -93.5t-39 -93.5t-99 -36.5z" />
    <glyph glyph-name="parenleft.case" horiz-adv-x="387" 
d="M270 -115q-218 181 -218 465t218 465l95 -88q-159 -159 -159 -377t159 -377z" />
    <glyph glyph-name="parenright.case" horiz-adv-x="387" 
d="M117 -115l-95 88q159 159 159 377t-159 377l95 88q218 -181 218 -465t-218 -465z" />
    <glyph glyph-name="braceleft.case" horiz-adv-x="440" 
d="M342 -85q-209 0 -209 206v60q0 53 -21.5 75.5t-73.5 22.5v137q52 0 73.5 22.5t21.5 75.5v60q0 104 50.5 155t156.5 51h82v-134h-46q-55 0 -75 -20t-20 -75v-84q0 -51 -24.5 -78.5t-74.5 -40.5q50 -13 74.5 -41t24.5 -79v-84q0 -55 20 -75t75 -20h46v-134h-80z" />
    <glyph glyph-name="braceright.case" horiz-adv-x="440" 
d="M98 -85h-80v134h46q55 0 75 20t20 75v84q0 51 24.5 79t74.5 41q-50 13 -74.5 40.5t-24.5 78.5v84q0 55 -20 75t-75 20h-46v134h82q106 0 156.5 -51t50.5 -155v-60q0 -53 21.5 -75.5t73.5 -22.5v-137q-52 0 -73.5 -22.5t-21.5 -75.5v-60q0 -206 -209 -206z" />
    <glyph glyph-name="bracketleft.case" horiz-adv-x="387" 
d="M68 -85v865h301v-136h-151v-593h151v-136h-301z" />
    <glyph glyph-name="bracketright.case" horiz-adv-x="387" 
d="M319 -85h-301v136h151v593h-151v136h301v-865z" />
    <glyph glyph-name="hyphen.case" horiz-adv-x="455" 
d="M45 293v136h365v-136h-365z" />
    <glyph glyph-name="uni00AD.case" horiz-adv-x="455" 
d="M45 293v136h365v-136h-365z" />
    <glyph glyph-name="endash.case" horiz-adv-x="600" 
d="M45 293v136h510v-136h-510z" />
    <glyph glyph-name="emdash.case" horiz-adv-x="840" 
d="M45 293v136h750v-136h-750z" />
    <glyph glyph-name="at.case" horiz-adv-x="883" 
d="M414 -49q-69 0 -132 21t-118.5 65t-88.5 122t-33 181q0 97 32.5 173.5t89.5 124t130.5 72t158.5 24.5q181 0 284.5 -96t103.5 -266q0 -130 -51 -188t-129 -58q-50 0 -81 18.5t-51 59.5q-25 -44 -55 -61t-71 -17q-67 0 -115.5 56.5t-48.5 157.5t46.5 155t117.5 54
q70 0 104 -53l13 48h113v-248q0 -63 40 -63q26 0 37 31t11 108q0 250 -268 250q-140 0 -215.5 -74.5t-75.5 -207.5q0 -128 70.5 -202.5t181.5 -74.5q100 0 165 38l49 -99q-96 -51 -214 -51zM442 247q68 0 68 93q0 91 -68 91q-69 0 -69 -91q0 -49 17 -71t52 -22z" />
    <glyph glyph-name="uni0308.case" 
d="M-284 742q-36 0 -60 22.5t-24 56.5t24 56.5t60 22.5t59.5 -22.5t23.5 -56.5t-23.5 -56.5t-59.5 -22.5zM-83 742q-36 0 -60 22.5t-24 56.5t24 56.5t60 22.5t59.5 -22.5t23.5 -56.5t-23.5 -56.5t-59.5 -22.5z" />
    <glyph glyph-name="gravecomb.case" 
d="M-133 748l-109 137h178l64 -137h-133z" />
    <glyph glyph-name="acutecomb.case" 
d="M-242 748l64 137h178l-109 -137h-133z" />
    <glyph glyph-name="uni0302.case" 
d="M-336 748l86 137h164l86 -137h-125l-43 53l-43 -53h-125z" />
    <glyph glyph-name="uni030C.case" 
d="M-336 885h125l43 -53l43 53h125l-86 -137h-164z" />
    <glyph glyph-name="uni030A.case" 
d="M-97 733q-43 0 -70 25t-27 66t27 66t70 25t70 -25t27 -66t-27 -66t-70 -25zM-97 795q31 0 31 29t-31 29t-31 -29t31 -29z" />
    <glyph glyph-name="tildecomb.case" 
d="M-311 746l-75 72q51 85 127 85q30 0 72 -18t53 -18q34 0 59 43l75 -72q-51 -85 -127 -85q-26 0 -68 18t-57 18q-34 0 -59 -43z" />
    <glyph glyph-name="uni0337.case" 
d="M-375 149v150l375 216v-150z" />
    <glyph glyph-name="uni0338.case" 
d="M-428 -38l-119 65l428 711l119 -65z" />
    </font>
</defs>
</svg>
