<?xml version="1.0" standalone="no"?>
<!DOCTYPE svg PUBLIC "-//W3C//DTD SVG 1.1//EN" "http://www.w3.org/Graphics/SVG/1.1/DTD/svg11.dtd" >
<svg xmlns="http://www.w3.org/2000/svg" xmlns:xlink="http://www.w3.org/1999/xlink" version="1.1">
<metadata>
Created by FontForge 20190801 at Wed Sep 30 20:48:07 2020
 By www-data
(c) Copyright Popeyes, 2020. All rights reserved.
</metadata>
<defs>
<font id="ChickenScript_Regular" horiz-adv-x="500" >
  <font-face 
    font-family="ChickenScript_Regular"
    font-weight="400"
    font-stretch="normal"
    units-per-em="1000"
    panose-1="0 0 0 0 0 0 0 0 0 0"
    ascent="750"
    descent="-250"
    x-height="389"
    cap-height="754"
    bbox="-557 -921.314 6453 1718"
    underline-thickness="0"
    underline-position="0"
    unicode-range="U+0020-1F65B"
  />
<missing-glyph 
d="M50 -250v1000h400v-1000h-400zM100 -200h300v900h-300v-900z" />
    <glyph glyph-name="t_t" unicode="tt" horiz-adv-x="512" 
d="M427 21q-66 0 -106.5 55.5t-40.5 174.5q0 94 19 249q-63 -9 -143 -25q-4 -70 -4 -107q0 -127 17 -255t17 -131q0 -40 -17 -40q-10 0 -24.5 21t-25.5 21q-9 0 -17 11t-12 29q-8 43 -11 82q-11 185 -4 292q4 49 7 71q-7 1 -13.5 2.5t-11 3.5t-10 6.5t-8.5 7t-10 9t-10 9.5
q-4 3 -12 9.5t-11.5 10.5t-3.5 9q0 33 110 65q39 188 77 188q12 0 12 -17q0 -16 -19 -153q81 17 150 24q16 77 29 77q6 0 10.5 -3t7 -6.5t3.5 -10.5t1 -11v-12v-9t-0.5 -7.5t-0.5 -12.5q41 4 89 4q17 0 28.5 -9t11.5 -26q0 -15 -17.5 -37.5t-17.5 -27.5q0 -6 5.5 -13
t5.5 -12q0 -12 -19 -13q-44 -2 -100 -8q-11 -125 -11 -220q0 -84 27 -118.5t66 -34.5q25 0 48 9t33.5 17t31.5 25q30 25 44 25q18 0 18 -21q0 -34 -50 -94q-62 -73 -138 -73z" />
    <glyph glyph-name="t_i" unicode="ti" horiz-adv-x="511" 
d="M-14 535q0 46 124 96q35 158 69 158q12 0 12 -17q0 -22 -14 -117q122 38 222 36q54 0 54 -31q0 -14 -9 -33q-12 -27 -21 -58q-2 -8 -9.5 -11.5t-30.5 -4.5q-122 -7 -224 -50q-7 -77 -7 -135q0 -126 17 -255.5t17 -137.5q0 -33 -19 -33q-10 0 -23.5 21t-24.5 21
q-9 0 -17 11t-12 29q-18 94 -18 284q0 74 11 164q-10 -2 -15 -2q-6 0 -11.5 1.5t-12 6t-9.5 7t-11 11t-11 10.5q-4 3 -12 9.5t-11.5 10.5t-3.5 9zM345 272q0 -75 25.5 -107t63.5 -32q34 0 66 19t55.5 38t35.5 19q6 0 8.5 -0.5t6 -5.5t3.5 -15q0 -34 -50 -94
q-58 -70 -138 -70q-63 0 -105 46.5t-42 153.5q0 90 20 181.5t39 91.5q15 0 23.5 -15t8.5 -31q0 -2 -10 -67t-10 -112z" />
    <glyph glyph-name=".notdef" 
d="M50 -250v1000h400v-1000h-400zM100 -200h300v900h-300v-900z" />
    <glyph glyph-name=".null" horiz-adv-x="0" 
 />
    <glyph glyph-name="nonmarkingreturn" horiz-adv-x="333" 
 />
    <glyph glyph-name="space" unicode=" " horiz-adv-x="195" 
 />
    <glyph glyph-name="exclam" unicode="!" horiz-adv-x="492" 
d="M196 160q-23 0 -23 62q0 82 34.5 220t98.5 251q30 52 57 52q9 0 10.5 -4.5t2 -14.5t6.5 -18q3 -4 12.5 -14t13 -17t3.5 -17q0 -17 -9.5 -38.5t-28.5 -56t-30 -60.5q-76 -173 -95 -290q-3 -21 -19 -38t-33 -17zM210 37q13 7 21 7q10 0 13.5 -10.5t3.5 -25.5t2 -19
q1 -2 4 -7t5 -10t2 -10q0 -17 -25 -35t-53 -18q-36 0 -67.5 18t-31.5 42q0 12 15.5 20.5t50.5 21.5t60 26z" />
    <glyph glyph-name="quotedbl" unicode="&#x22;" horiz-adv-x="402" 
d="M340 676q0 -86 -23.5 -165t-50.5 -79q-25 0 -25 37q0 33 -6 110t-6 102q0 48 43 48q33 0 50.5 -15.5t17.5 -37.5zM184 645q0 -55 -26.5 -107.5t-50.5 -52.5q-33 0 -33 136q0 108 23 108q8 0 18 -5.5t14 -5.5q3 0 11 2t12 2q32 0 32 -77z" />
    <glyph glyph-name="numbersign" unicode="#" horiz-adv-x="707" 
d="M176 10q-3 21 -3 70v30q-52 -2 -64 -2q-142 0 -142 42q0 11 22 21.5t70 20t117 15.5q5 91 13 158h-21q-80 0 -109 7t-29 28q0 15 46.5 32t124.5 28q29 184 59 184q18 0 18 -41q0 -15 -2 -33.5t-6 -47.5t-7 -55q78 8 156 8q14 90 31 143.5t31 53.5q5 0 10 -12t5 -28
q0 -8 -2 -27t-6.5 -56.5t-7.5 -72.5q102 0 155 -8q12 -2 20.5 -5.5t13.5 -7t9 -11t5 -10.5t3 -12t2 -11q1 -4 6 -10.5t5 -13.5q0 -15 -27 -15h-159h-41q-4 -86 -5 -153h5q180 0 180 -31q0 -4 -2 -14t-2 -14q0 -6 6.5 -15t6.5 -15t-5.5 -11.5t-15.5 -5.5q-4 0 -37 1t-39 1
h-98q1 -120 8 -224q2 -28 -11 -28q-8 0 -20.5 8t-27 30.5t-20.5 53.5q-6 40 -6 121v39q-81 -1 -142 -3q1 -44 4 -97t3 -69q0 -28 -12 -28q-6 0 -14.5 16.5t-17.5 20.5q-1 1 -5 2.5t-5 2t-4.5 2.5t-4 3t-3 3.5t-3 5t-2.5 6t-3 8t-2 10t-2 12.5zM254 367q-5 -64 -6 -154
q45 3 145 5q5 81 12 153q-106 -2 -151 -4z" />
    <glyph glyph-name="dollar" unicode="$" horiz-adv-x="530" 
d="M311 728q10 0 10 -15q0 -22 -8 -83q56 -1 101.5 -17.5t45.5 -34.5q0 -10 -9.5 -15.5t-25 -10t-22.5 -8.5q-6 -4 -11 -9.5t-8.5 -8.5t-7.5 -3q-5 0 -27.5 10t-46.5 14q-12 -100 -15 -143q6 0 18 -2q190 -19 190 -183q0 -89 -57 -156t-143 -97q3 -31 7.5 -66.5t7 -56
t2.5 -32.5q0 -33 -19 -33q-8 0 -19 18.5t-21 18.5q-7 0 -14.5 9.5t-10.5 24.5q-5 37 -11 100q-20 -2 -30 -2q-89 0 -140.5 37t-51.5 101q0 57 32.5 84.5t68.5 27.5q26 0 26 -20q0 -15 -18 -22q-10 -4 -15.5 -7t-10 -11.5t-4.5 -21.5q0 -33 40 -52.5t98 -19.5h1q-1 49 -1 163
q0 52 5 120q-68 18 -105 44.5t-37 77.5q0 55 52 109.5t135 68.5q25 102 49 102zM146 470q0 -26 20 -38.5t59 -19.5q7 67 20 137q-40 -5 -69.5 -27.5t-29.5 -51.5zM281 258q0 -104 7 -204q62 19 103.5 59t41.5 85q0 48 -39 71.5t-112 41.5q-1 -18 -1 -53z" />
    <glyph glyph-name="percent" unicode="%" horiz-adv-x="810" 
d="M273 -51q-9 -26 -13 -33.5t-10 -7.5q-5 0 -10 8.5t-10.5 21.5t-9.5 19q-2 3 -13 9t-11 18q0 22 18 65q44 99 123 224.5t172 239.5q-71 -52 -136 -68q-14 -69 -60 -116t-113 -47t-106.5 43.5t-39.5 113.5t39 117t79 47q24 43 85 43q46 0 81 -35t39 -98q104 18 220 113
q14 12 21 12q6 0 12.5 -7t6.5 -13q0 -8 -27 -46q-121 -163 -198.5 -305t-138.5 -318zM211 561q0 -21 26.5 -37.5t66.5 -16.5h6q-5 39 -25 63t-41 24q-15 0 -24 -9t-9 -24zM161 455q0 -50 20 -73t48 -23q61 0 78 77q-102 0 -135 83q-11 -28 -11 -64zM433 138q0 65 28.5 109.5
t63.5 44.5h5q6 22 30 38.5t55 16.5q59 0 100 -47.5t41 -132.5q0 -78 -48 -138t-123 -60q-67 0 -109.5 51t-42.5 118zM530 173q0 -54 26.5 -87.5t60.5 -33.5q32 0 54.5 32t22.5 80q0 52 -22 80t-51 28q-15 0 -28 -18.5t-29 -18.5q-13 0 -24 8q-10 -36 -10 -70z" />
    <glyph glyph-name="ampersand" unicode="&#x26;" horiz-adv-x="533" 
d="M437 -163q0 -47 -26 -47q-7 0 -12.5 9t-13.5 24t-19 24q-9 8 -29 10t-28.5 18t-8.5 67q0 29 1 45q-22 -2 -33 -2q-95 0 -155 55t-60 142q0 128 129 221q-91 43 -91 125q0 91 78.5 154t181.5 76q9 166 76 192q9 3 15 3q13 0 13 -12q0 -4 -4.5 -32.5t-9.5 -71.5t-5 -82
q33 -19 33 -65q0 -30 -17.5 -52.5t-42.5 -22.5q-26 0 -41.5 18.5t-18.5 48.5q-72 8 -110 -24.5t-38 -85.5q0 -85 61 -122q71 31 122 31q53 0 53 -33q0 -30 -39 -51t-87 -21q-43 0 -80 10q-64 -67 -64 -154q0 -74 39.5 -112.5t109.5 -38.5q19 54 57.5 83t70.5 29q42 0 42 -49
q0 -63 -69 -112q3 -59 11.5 -117t8.5 -78z" />
    <glyph glyph-name="quotesingle" unicode="'" horiz-adv-x="246" 
d="M184 645q0 -55 -26.5 -107.5t-50.5 -52.5q-33 0 -33 136q0 108 23 108q8 0 18 -5.5t14 -5.5q3 0 11 2t12 2q32 0 32 -77z" />
    <glyph glyph-name="parenleft" unicode="(" horiz-adv-x="452" 
d="M301 -185q5 -5 11.5 -10t9 -7.5t6 -5.5t4.5 -5l2 -4t1 -5q0 -12 -23 -12q-71 0 -148 77q-61 63 -100.5 162.5t-39.5 222.5q0 117 31.5 221t78.5 172.5t102 119.5t101 74t76 23q22 0 24 -15q1 -8 -4.5 -14t-24 -18t-29.5 -20q-37 -28 -66.5 -57t-62.5 -77t-55 -103.5
t-37 -136.5t-15 -175q0 -143 46.5 -245t111.5 -162z" />
    <glyph glyph-name="parenright" unicode=")" horiz-adv-x="452" 
d="M150 794q-5 5 -11.5 10t-9 7.5t-6 5.5t-4.5 5l-2 4t-1 5q0 12 23 12q71 0 148 -77q61 -63 100.5 -162.5t39.5 -222.5q0 -117 -31.5 -221t-78.5 -172.5t-102 -119.5t-101 -74t-76 -23q-22 0 -24 15q-1 8 4.5 14t24 18t29.5 20q37 28 66.5 57t62.5 77t55 103.5t37 136.5
t15 175q0 143 -46.5 245t-111.5 162z" />
    <glyph glyph-name="asterisk" unicode="*" 
d="M277 327q-17 0 -35.5 57t-27.5 129q-14 -10 -34.5 -25t-30.5 -22t-23.5 -13t-26.5 -7q-6 -1 -12.5 0.5t-15 5t-12.5 4.5q-3 1 -7.5 2t-6.5 1.5t-5 1.5t-4.5 2t-3 2.5t-2 3t-0.5 4.5q0 35 119 111q-33 24 -54 44q-26 24 -26 72q0 14 5 25.5t14 11.5q11 0 30 -17
q3 -3 17.5 -18t33 -32t40.5 -35q0 58 7 101q4 23 28 48t46 25q16 0 16 -23q0 -12 -7.5 -52t-11.5 -73q81 38 116 38q9 0 15 -7t6 -17q0 -13 -8.5 -22t-8.5 -13t6.5 -8t6.5 -10q0 -8 -14 -13q-53 -20 -103 -44q38 -25 94.5 -59.5t63.5 -39.5q9 -7 9 -12q0 -12 -20 -12
q-55 0 -169 58q1 -38 4 -94t3 -64q0 -15 -11 -15z" />
    <glyph glyph-name="plus" unicode="+" 
d="M38 291q0 24 46 48.5t117 43.5q9 92 30 161t42 69q12 0 12 -17q0 -7 -3.5 -76.5t-4.5 -118.5q97 17 158 16q25 0 25 -23q0 -17 -16.5 -35t-16.5 -22q0 -6 5.5 -14t5.5 -11q0 -12 -19 -13q-74 -4 -139 -18q3 -42 23 -164q6 -45 -16 -45q-24 0 -51 28t-32 54q-6 38 -8 102
q-56 -20 -73 -20q-20 0 -49 29q-3 3 -19.5 8t-16.5 18z" />
    <glyph glyph-name="comma" unicode="," horiz-adv-x="341" 
d="M179 137q39 0 67.5 -24t28.5 -54q0 -67 -63 -140t-107 -73q-21 0 -21 16t29 38q67 50 67 86q0 8 -39.5 16.5t-39.5 29.5q0 32 26.5 68.5t51.5 36.5z" />
    <glyph glyph-name="hyphen" unicode="-" horiz-adv-x="461" 
d="M268 413q90 0 90 -26q0 -5 -2 -14t-2 -14q0 -3 3.5 -9t3.5 -12q0 -19 -19 -19q-4 0 -30 1t-47 1q-32 0 -70.5 -4.5t-41.5 -4.5q-16 0 -34.5 19t-18.5 36q0 15 52.5 30.5t115.5 15.5z" />
    <glyph glyph-name="period" unicode="." horiz-adv-x="390" 
d="M122 96q0 24 57 58.5t95 34.5q12 0 14.5 -6.5t2.5 -19.5t3 -21q2 -3 7.5 -10t9 -13.5t3.5 -14.5q0 -23 -31 -52t-62 -29q-37 0 -68 23t-31 50z" />
    <glyph glyph-name="slash" unicode="/" horiz-adv-x="767" 
d="M638 777q8 6 16 6q18 0 18 -14q0 -5 -5.5 -20.5t-5.5 -25.5q0 -9 4 -27t4 -28q0 -28 -23 -51q-160 -160 -265 -305q-52 -72 -98 -143t-81 -131t-40 -67q-29 -42 -45 -42q-22 0 -22 19q0 42 80.5 200t164.5 281q71 104 153.5 201t144.5 147z" />
    <glyph glyph-name="zero" unicode="0" horiz-adv-x="625" 
d="M310 -30q-121 0 -194.5 87t-73.5 231q0 85 26.5 153.5t69.5 110.5t94.5 64t105.5 22q97 0 171 -82t74 -231q0 -138 -79.5 -246.5t-193.5 -108.5zM478 297q0 126 -54 200.5t-131 74.5q-64 0 -100.5 -67.5t-36.5 -182.5q0 -144 51.5 -213.5t125.5 -69.5q69 0 107 66.5
t38 191.5z" />
    <glyph glyph-name="one" unicode="1" horiz-adv-x="442" 
d="M254 -2q-64 -6 -114 -16t-70 -10q-18 0 -39 20t-21 38q0 23 54.5 45.5t134.5 27.5q0 75 3 127q2 138 17 259q-58 -58 -113 -55q-27 1 -51 17t-24 39q0 11 23 16q63 11 114 56q23 20 42 45l28.5 37.5t17.5 12.5q11 -1 20.5 -23.5t6.5 -50.5q-10 -86 -12 -153
q-10 -200 0 -327q32 -2 59.5 -12t27.5 -21q0 -4 -3 -12t-3 -13q0 -3 7.5 -15t7.5 -17q0 -12 -36 -12q-43 0 -77 -3z" />
    <glyph glyph-name="two" unicode="2" horiz-adv-x="570" 
d="M506 53q-105 31 -199 42q-68 -66 -117.5 -95.5t-109.5 -29.5q-43 0 -65.5 21t-22.5 60q0 59 68 101t174 42q31 0 79 -4q91 127 91 244q0 132 -136 132q-39 0 -75.5 -19t-60 -38t-32.5 -19q-15 0 -15 17q0 31 45 69q83 73 182 73q89 0 144 -50t55 -147q0 -59 -38 -131.5
t-99 -141.5q49 -12 104 -33q18 -7 27 -13.5t11 -9.5t2.5 -13t0.5 -13q1 -7 4.5 -20t3.5 -15q2 -15 -21 -9zM86 57q0 -24 31 -24q44 0 117 68h-23q-60 0 -92.5 -12t-32.5 -32z" />
    <glyph glyph-name="three" unicode="3" horiz-adv-x="510" 
d="M107 -122q-67 0 -106.5 26t-39.5 67q0 40 28.5 67.5t54.5 27.5q8 0 13 -6t5 -11q0 -9 -16 -26.5t-16 -32.5q0 -20 21 -33t57 -13q117 0 183.5 72.5t66.5 164.5q0 90 -75 127q-77 -30 -150 -30q-33 0 -53 9.5t-20 23.5q0 28 45.5 51.5t121.5 23.5q25 0 58 -5q71 51 71 109
q0 84 -120 84q-44 0 -82.5 -13t-62 -26.5t-31.5 -13.5q-14 0 -14 12q0 27 41 57q84 59 192 59q83 0 135 -33t52 -102q0 -90 -98 -159q108 -54 108 -164q0 -139 -110 -226t-259 -87z" />
    <glyph glyph-name="four" unicode="4" horiz-adv-x="542" 
d="M15 187q0 71 34.5 146.5t87.5 135.5t112.5 109.5t113 76.5t85.5 27q26 0 26 -20q0 -10 -12 -22t-30 -20q-94 -41 -174 -118.5t-121 -152.5t-41 -127q0 -59 103 -59q55 0 104 9q8 132 25.5 226t33.5 94q13 0 27 -21t14 -48q0 -22 -7 -96.5t-9 -135.5q45 13 128 46
q7 3 11 3q6 0 6 -7t-11 -29t-11 -29q0 -6 3.5 -14t3.5 -12q0 -15 -43 -36q-42 -20 -88 -32q1 -135 11 -227q1 -6 -3.5 -12t-8.5 -6q-6 1 -16.5 10.5t-18.5 13.5l-10.5 3.5t-10 3.5t-7.5 3.5t-7 6.5t-4.5 10t-4.5 15q-8 38 -8 104q0 38 1 57q-56 -7 -99 -7q-78 0 -131.5 36
t-53.5 95z" />
    <glyph glyph-name="five" unicode="5" horiz-adv-x="494" 
d="M108 650q4 0 38 -8.5t77 -10.5t145 11q40 6 74 16t51.5 17t23.5 7q10 0 10 -16q0 -22 -49 -52t-131 -53t-162 -23q-59 -144 -72 -177q84 44 165 44q80 0 136 -47t56 -136q0 -145 -107 -234.5t-256 -89.5q-67 0 -106.5 24.5t-39.5 64.5q0 34 26.5 58t46.5 24q7 0 12.5 -6
t5.5 -11q0 -8 -11 -22t-11 -24q0 -18 20 -30t49 -12q111 0 181 72.5t70 170.5q0 64 -32.5 94.5t-84.5 30.5q-51 0 -108 -23t-64 -23q-11 0 -18 8.5t-4 23.5l13.5 45t28.5 91.5t29 92.5q-31 7 -47.5 20.5t-16.5 23.5q0 11 32 32q3 2 8.5 9.5t11 12.5t10.5 5z" />
    <glyph glyph-name="six" unicode="6" horiz-adv-x="548" 
d="M28 218q0 83 33 160t83.5 132.5t110 97.5t115 63t95.5 21q21 0 21 -10q0 -7 -16 -19.5t-16 -19.5q0 -4 6.5 -13.5t6.5 -14.5q0 -8 -14 -14q-278 -112 -308 -323q101 67 207 67q76 0 123 -43t47 -107q0 -90 -76.5 -157.5t-176.5 -67.5q-107 0 -174 66.5t-67 181.5z
M298 256q-86 0 -157 -35q2 -79 47 -129t122 -50q53 0 82.5 25.5t29.5 72.5q0 50 -34 83t-90 33z" />
    <glyph glyph-name="seven" unicode="7" horiz-adv-x="494" 
d="M336 374q79 0 79 -25q0 -5 -2 -15t-2 -14q0 -3 3.5 -11.5t3.5 -12.5q0 -20 -19 -20q-2 0 -24 1t-40 1q-24 0 -66 -4q-70 -152 -100 -328q-4 -21 -23 -21q-25 0 -52 40.5t-27 74.5q0 59 93 220q-49 -7 -62 -7q-15 0 -35.5 19t-20.5 31q0 11 55.5 29.5t125.5 30.5
q91 135 193 234q-117 -45 -228 -45q-46 0 -81 7t-50.5 15.5t-15.5 17.5q0 7 6.5 11.5t17.5 10t18 12.5q2 2 10.5 18t18.5 16q1 0 44 -6.5t93 -6.5q69 0 127 11.5t91 22.5t41 11q11 0 17 -6.5t6 -15.5q0 -14 -34 -53.5t-88 -107.5t-89 -133l-1 -2h17z" />
    <glyph glyph-name="eight" unicode="8" horiz-adv-x="552" 
d="M495 174q0 -44 -17 -81.5t-44.5 -62.5t-62 -42.5t-68.5 -25.5t-65 -8q-82 0 -132 40.5t-50 109.5q0 88 114 200q-64 30 -100.5 66.5t-36.5 92.5q0 94 110.5 166.5t254.5 72.5q93 0 144 -27q32 55 48 111q6 22 20 22q10 0 17 -11t7 -29q0 -76 -81 -181.5t-208 -206.5
q-4 -3 -12 -9.5t-12 -9.5q82 -35 128 -77t46 -110zM118 504q0 -39 36 -64.5t108 -54.5q37 30 54 43q89 69 158 150q-52 40 -172 40q-83 0 -133.5 -34.5t-50.5 -79.5zM151 120q0 -41 34.5 -65t96.5 -24q47 0 88 30t41 75q0 21 -11.5 40t-24 31t-43 27t-46 21.5t-55.5 22.5
q-80 -83 -80 -158z" />
    <glyph glyph-name="nine" unicode="9" horiz-adv-x="548" 
d="M520 439q0 -83 -33 -160t-83.5 -132.5t-110 -97.5t-115 -63t-95.5 -21q-21 0 -21 10q0 7 16 19.5t16 19.5q0 4 -6.5 13.5t-6.5 14.5q0 8 14 14q278 112 308 323q-101 -67 -207 -67q-76 0 -123 43t-47 107q0 90 76.5 157.5t176.5 67.5q107 0 174 -66.5t67 -181.5zM126 517
q0 -50 34 -83t90 -33q86 0 157 35q-2 79 -47 129t-122 50q-53 0 -82.5 -25.5t-29.5 -72.5z" />
    <glyph glyph-name="colon" unicode=":" horiz-adv-x="332" 
d="M116 389q0 13 19.5 19.5t58 19t69.5 33.5q5 4 10 4q9 0 15.5 -8t6.5 -18q0 -4 -1.5 -11.5t-1.5 -10.5q0 -6 6 -12.5t6 -10.5q0 -27 -26.5 -49t-57.5 -22q-35 0 -69.5 20.5t-34.5 45.5zM125 47q0 20 47.5 49t79.5 29q6 0 7.5 -4t1.5 -10v-14t3 -13q1 -3 11 -12.5t10 -17.5
q0 -19 -25.5 -43.5t-51.5 -24.5q-31 0 -57 19t-26 42z" />
    <glyph glyph-name="semicolon" unicode=";" horiz-adv-x="332" 
d="M125 388q0 20 47.5 49t79.5 29q6 0 7.5 -4t1.5 -10v-14t3 -13q1 -3 11 -13t10 -17q0 -19 -25.5 -43.5t-51.5 -24.5q-31 0 -57 19t-26 42zM179 137q39 0 67.5 -24t28.5 -54q0 -67 -63 -140t-107 -73q-21 0 -21 16t29 38q67 50 67 86q0 8 -39.5 16.5t-39.5 29.5
q0 32 26.5 68.5t51.5 36.5z" />
    <glyph glyph-name="less" unicode="&#x3c;" 
d="M426 576q29 0 29 -15t-47 -34q-175 -73 -285 -186q117 -115 307 -188q24 -10 24 -18q0 -7 -25 -22t-29 -25q-7 -18 -18 -23.5t-33 -5.5q-40 0 -131.5 54t-141.5 119q-34 44 -34 92q0 29 22 56.5t63 60.5q66 53 157.5 94t141.5 41z" />
    <glyph glyph-name="equal" unicode="=" 
d="M36 435q0 32 107.5 58t213.5 26q69 0 69 -31q0 -13 -12 -31t-14 -31q-1 -15 -6 -19t-21 -4q-49 0 -174 -8q-85 -5 -124 4t-39 36zM48 228q0 33 118.5 62t230.5 29q73 0 73 -21q0 -11 -4 -31q-2 -11 -6 -19t-8 -14t-13.5 -10.5t-16.5 -7t-23.5 -5t-28 -4t-36.5 -4
t-43 -4.5q-46 -4 -96 -15.5t-66 -11.5q-23 0 -52 19t-29 37z" />
    <glyph glyph-name="greater" unicode="&#x3e;" 
d="M74 59q-29 0 -29 15t47 34q175 73 285 186q-117 115 -307 188q-24 10 -24 18q0 7 25 22t29 25q7 18 18 23.5t33 5.5q40 0 131.5 -54t141.5 -119q34 -44 34 -92q0 -29 -22 -56.5t-63 -60.5q-66 -53 -157.5 -94t-141.5 -41z" />
    <glyph glyph-name="question" unicode="?" horiz-adv-x="577" 
d="M572 639q0 -57 -36.5 -107.5t-89 -84.5t-105 -62t-89 -52t-36.5 -42q0 -14 23 -26.5t23 -16.5q0 -12 -14.5 -22t-32.5 -10q-38 0 -57.5 15t-19.5 36q0 33 31 64.5t76 58.5t89.5 55t75.5 64t31 75q0 53 -46.5 88t-119.5 35q-48 0 -90 -14.5t-67.5 -29.5t-34.5 -15
q-17 0 -17 15q0 33 50 70q91 67 224 67q103 0 167.5 -41.5t64.5 -119.5zM82 36q0 24 57 58.5t95 34.5q12 0 14.5 -6.5t2.5 -19.5t3 -21q2 -3 7.5 -10t9 -13.5t3.5 -14.5q0 -23 -31 -52t-62 -29q-37 0 -68 23t-31 50z" />
    <glyph glyph-name="at" unicode="@" horiz-adv-x="983" 
d="M760 206q-91 0 -130 107q-12 28 -19 28q-9 0 -23 -24q-92 -154 -181 -154q-59 0 -95.5 41.5t-36.5 124.5q0 116 90.5 196t228.5 80q52 0 86 -12q21 -7 35 -46q2 -7 9.5 -16t7.5 -14q0 -13 -15 -13q-11 0 -37 7q6 -126 21.5 -186.5t54.5 -60.5q41 0 74.5 57t33.5 119
q0 152 -87.5 235t-225.5 83q-82 0 -147.5 -27t-106.5 -69.5t-68.5 -100t-38.5 -115.5t-11 -118q0 -158 70 -242.5t179 -84.5q132 0 137 127q1 15 10 27.5t25 12.5q14 0 24 -15t10 -36q0 -74 -57.5 -124.5t-150.5 -50.5q-72 0 -139 24t-120.5 69t-85.5 116.5t-32 159.5
q0 94 36.5 185t100.5 163.5t159.5 117.5t204.5 45q179 0 281.5 -98t102.5 -255q0 -114 -56 -188.5t-118 -74.5zM375 347q0 -92 65 -92q27 0 55.5 32t51 80t37.5 88.5t24 73.5q-97 17 -156 -20q-41 -26 -59 -72.5t-18 -89.5z" />
    <glyph glyph-name="A" unicode="A" horiz-adv-x="680" 
d="M705 -162q0 -16 -21 -16q-7 0 -15.5 2t-21.5 6t-24 6q-3 1 -13.5 3t-15 3t-12 4t-11.5 6t-7 8q-50 87 -87 285q-126 -9 -239 35q-73 -139 -115 -189q-17 -19 -31 -19q-26 0 -55 17q-30 18 -30 32q0 13 20 26q97 66 204.5 257t182.5 402q-29 142 -91 142q-24 0 -64.5 -28
t-47.5 -28q-14 0 -16 35q-1 9 -6 24.5t-5 22.5q0 21 34 42.5t84 21.5q150 0 190 -171q29 -123 72 -489q0 -4 2 -12t2 -12q56 7 78 7q36 0 25 -25q-3 -7 -16.5 -17t-18.5 -17q-4 -5 -8.5 -15t-10.5 -15.5t-19 -8.5q-3 -1 -11 -3q28 -124 58 -192q12 -27 28.5 -57.5t24 -46.5
t7.5 -26zM291 284l-12.5 -25t-13.5 -26q79 -5 196 8q-21 153 -28 307q-1 14 -4 19.5t-8.5 1t-11.5 -19.5q-45 -113 -118 -265z" />
    <glyph glyph-name="B" unicode="B" horiz-adv-x="700" 
d="M553 111q0 93 -76.5 141.5t-214.5 41.5q3 -176 29 -336q9 -43 -19 -43q-8 0 -14 4.5t-15.5 17.5t-11.5 16q-8 9 -22.5 8.5t-25.5 3.5t-14 25q-13 72 -13 248q0 235 55 443q-63 -16 -98 -65.5t-28 -105.5q6 -36 6 -45q0 -21 -15 -21q-14 0 -26 18.5t-21 24.5q-5 4 -22 10
t-24 15t-7 29q0 79 75 150t190 86q38 99 69 99q20 0 20 -18q0 -4 -21 -78q103 -5 178 -58.5t75 -144.5q0 -62 -33.5 -126t-99.5 -100q98 -3 170 -67.5t72 -168.5q0 -87 -50.5 -163t-118.5 -116t-128 -40q-20 0 -28.5 4t-14.5 14t-11 14q-7 6 -18.5 13.5t-16.5 12.5t-5 11
q0 4 1.5 7.5t6 6t8.5 4.5t12 4.5t13.5 4t16.5 4t17 4.5q85 21 141.5 74.5t56.5 136.5zM274 605q-12 -116 -13 -243q70 -11 137.5 41.5t67.5 141.5q0 63 -46 100.5t-134 41.5q-7 -35 -12 -82z" />
    <glyph glyph-name="C" unicode="C" horiz-adv-x="702" 
d="M646 63q16 0 16 -10q0 -4 -4 -9t-10 -10.5t-8 -8.5q-4 -6 -5.5 -25t-9.5 -24q-21 -15 -67.5 -31.5t-95.5 -16.5q-53 0 -106.5 11.5t-108.5 39.5t-97.5 69.5t-69 109t-26.5 150.5q0 82 29.5 165t81.5 150.5t131.5 110t171.5 42.5q102 0 171 -40t69 -81q0 -9 -4.5 -15
t-9.5 -7.5t-14 -3t-11 -2.5q-18 -6 -30 -18.5t-22 -12.5q-9 0 -26 16q-92 85 -180 85q-44 0 -84.5 -18.5t-76 -56.5t-56.5 -105.5t-21 -156.5q0 -103 48 -176.5t119 -106t154 -32.5q54 0 99.5 9t52.5 9z" />
    <glyph glyph-name="D" unicode="D" horiz-adv-x="778" 
d="M240 -19q-28 -4 -61.5 -19t-39.5 -16q-22 -3 -24 20q-1 10 8.5 38t26 78t26.5 99q10 52 34 191.5t35 186.5q25 118 28 131q-125 -23 -157 -165q-8 -38 -21 -38q-6 0 -9.5 10.5l-9.5 28.5t-16 31q-7 8 -17 13.5t-14 10t-4 15.5q0 61 86.5 126.5t202.5 69.5q10 16 16 25
q37 55 63 59q16 3 19 -10q0 -3 -1 -7t-3.5 -7.5t-7 -11t-8.5 -15.5q-6 -11 -16 -35q166 -14 262 -113t96 -240q0 -144 -73 -243t-189 -154q-92 -42 -232 -59zM221 111q0 -15 21 -15q2 0 4.5 0.5t7.5 1t11 0.5q9 1 32.5 1.5t47.5 2t45 4.5q59 9 103 32.5t67.5 52t37.5 68
t17.5 70.5t3.5 69q0 126 -77.5 205t-189.5 89q-4 -26 -14 -102.5t-18 -130.5q-15 -100 -40 -182t-42 -120.5t-17 -45.5z" />
    <glyph glyph-name="E" unicode="E" horiz-adv-x="753" 
d="M247 412v-5q108 54 216 54q28 0 37.5 -9t9.5 -26q0 -24 -11.5 -48.5t-25.5 -27.5q-140 -23 -223 -61q8 -135 37 -209t75 -99.5t123 -25.5q56 0 129.5 23.5t128.5 56.5q16 10 22 10t6 -8q0 -5 -6 -22t-6 -27q0 -4 1 -11.5t1 -10.5q0 -34 -53.5 -67.5t-124 -53.5
t-126.5 -20q-76 0 -131.5 21.5t-97.5 72t-63 139.5t-21 217q0 212 32 363q-41 -18 -76 -37q-7 -4 -20.5 -12t-22 -12t-14.5 -4q-12 0 -21 7.5t-9 21.5q0 31 28 59q61 62 204 114t305 52q46 0 83 -6t55 -13.5t18 -14.5q0 -6 -7.5 -10.5t-21 -12.5t-23.5 -18q-6 -6 -11 -18
t-11.5 -18.5t-20.5 -6.5q-6 0 -39 2.5t-62 2.5q-121 0 -249 -44q-14 -122 -14 -258z" />
    <glyph glyph-name="F" unicode="F" horiz-adv-x="673" 
d="M515 452q21 0 27.5 -7t6 -22t2.5 -22q12 -30 12 -34q0 -19 -20 -21q-51 -6 -126.5 -27t-124.5 -44q4 -44 10.5 -90.5t11.5 -72t16.5 -79t14.5 -70.5q7 -32 -15 -32q-7 0 -22.5 10.5t-29.5 12.5q-6 1 -18 1t-16.5 1t-12 4.5t-12 10.5t-8.5 19q-27 83 -27 285q0 227 37 388
q-89 16 -138.5 42.5t-49.5 49.5q0 10 15 10q13 0 74.5 -11t136.5 -11q96 0 174 9.5t116 20.5t67.5 20.5t39.5 9.5q12 0 20.5 -13.5t17.5 -18.5q11 -6 27 -9t24 -6.5t8 -12.5q0 -7 -9.5 -18t-34.5 -25t-60 -25.5t-93 -19.5t-128 -8t-129 6q-12 -112 -12 -241v-21
q107 61 228 61z" />
    <glyph glyph-name="G" unicode="G" horiz-adv-x="770" 
d="M714 292q-38 -18 -57 -25q1 -15 1 -42q0 -85 16 -162.5t32.5 -127.5t16.5 -67q0 -32 -17 -32q-5 0 -17 10t-19 14q-2 1 -44 12q-45 12 -59 145q-90 -62 -180 -62q-64 0 -122 21.5t-104.5 61.5t-74.5 105.5t-28 146.5q0 50 12 106.5t43 120.5t77 114.5t122.5 84
t171.5 33.5q90 0 165 -42.5t75 -78.5q0 -12 -6 -16t-18.5 -6t-18.5 -5q-12 -6 -25.5 -19t-20.5 -13q-14 0 -28 16q-78 85 -180 85q-49 0 -93 -18.5t-82.5 -56.5t-61.5 -106.5t-23 -159.5q0 -47 16 -93t48.5 -88t91.5 -67.5t137 -25.5q56 0 104 16v10q0 76 7 158
q-59 -14 -108 -14q-101 0 -101 35q0 20 16.5 43t33.5 31q4 2 24 5t53 8.5t59 10.5q38 8 73.5 19t53.5 17t26 6q21 0 21 -18q0 -3 -2 -9t-2 -11q0 -6 8 -21t8 -25q0 -15 -20 -24z" />
    <glyph glyph-name="H" unicode="H" horiz-adv-x="625" 
d="M543 404q0 -138 16.5 -270t16.5 -138q0 -36 -23 -36q-30 0 -64 133t-51 300q-64 -40 -154 -40q-31 0 -76 12q-1 -37 -1 -125q0 -106 12 -222t12 -128q0 -47 -26 -47q-7 0 -12.5 9t-13.5 24t-19 24q-9 8 -26.5 10.5t-23.5 6.5q-19 14 -19 78q0 145 21 391q-17 6 -26.5 20
t-9.5 29q0 24 42 22q30 326 68 326q32 0 32 -101q0 -27 -3.5 -103t-5.5 -137q19 -3 35 -3q103 0 189 62q-2 124 27.5 213t90.5 89q28 0 41.5 -28.5t13.5 -68.5q0 -103 -62 -207q-1 -34 -1 -95z" />
    <glyph glyph-name="I" unicode="I" horiz-adv-x="277" 
d="M75 275q0 479 62 479q15 0 34 -24t19 -57q0 -30 -2.5 -94t-2.5 -81q0 -317 46 -546q2 -12 -2 -21t-13 -9q-7 0 -22.5 13.5t-29.5 17.5l-17.5 3.5t-17 4t-12 6t-12 12.5t-8.5 21q-22 71 -22 275z" />
    <glyph glyph-name="J" unicode="J" horiz-adv-x="590" 
d="M117 207q0 -68 49.5 -129t125.5 -61q64 0 101.5 30.5t37.5 106.5q0 43 -26 157t-26 182q0 113 32 187q-7 0 -23 0.5t-23 0.5q-48 0 -109 -18.5t-72 -18.5q-12 0 -20 7t-8 16q0 5 2.5 9.5t5.5 8t9 9.5t10 11t10 16.5t11.5 18.5t12.5 11q72 39 236 26q43 26 90 26
q43 0 71.5 -21.5t28.5 -49.5t-24.5 -45t-60.5 -17q-21 0 -71 4q-14 -34 -14 -105q0 -48 32 -153t32 -178q0 -53 -13.5 -102t-42 -93t-80.5 -70.5t-121 -26.5t-122.5 19.5t-84.5 51.5t-47 69t-16 77q0 106 63 169t136 63q22 0 35.5 -7.5t13.5 -19.5q0 -22 -19 -24
q-3 0 -17 -0.5t-20 -1.5q-85 -15 -85 -135z" />
    <glyph glyph-name="K" unicode="K" horiz-adv-x="784" 
d="M601 -57q-57 47 -121 148t-104 232q-33 -166 -95 -268t-103 -102q-8 0 -28 5t-30 5q-47 0 -53 6q-2 2 -2 6q0 8 11 19q132 132 188.5 273.5t56.5 353.5q0 22 -6 30.5t-21 8.5q-40 0 -97 -39q-8 -6 -24 -18.5t-25 -18t-16 -5.5q-13 0 -14.5 17.5t-10.5 21.5
q-13 6 -33.5 10.5t-28 9.5t-7.5 17q0 28 80.5 62.5t151.5 34.5q132 0 132 -154q0 -87 -9 -162q77 57 149.5 135t117.5 146q21 29 32.5 41t22.5 12q15 0 25 -15t10 -44q0 -47 -38 -90q-34 -38 -112 -107.5t-144 -110.5q90 -267 278 -380q11 -7 29 -16t23.5 -13t5.5 -9
q0 -9 -19 -15q-14 -5 -32 -20.5t-36 -26.5t-39 -11q-29 0 -65 31z" />
    <glyph glyph-name="L" unicode="L" horiz-adv-x="470" 
d="M1 -125q-11 -1 -16 5.5t-4 15.5q1 10 13 44t30.5 88t29.5 100t43 206t54 236q-101 26 -145 48q-22 11 -22 20q0 5 4 8.5t16 8t19 8.5q6 4 16.5 13.5t20 16t17.5 6.5q7 0 20.5 -5.5t40.5 -18.5t41 -19q72 178 193 178q42 0 71 -27.5t29 -69.5q0 -71 -57 -128.5t-145 -57.5
q-15 0 -23 1q-9 -109 -16 -158q-23 -150 -144 -367q-6 -12 -6 -18q0 -9 10 -9q7 0 15 4q54 26 109.5 30t105.5 3.5t86 13.5q26 11 32 11q16 0 16 -15q0 -16 -16 -41q-29 -44 -58.5 -66.5t-78.5 -22.5q-16 0 -49.5 2t-51.5 2q-58 0 -119 -22t-81 -24zM305 623q93 0 93 72
q0 23 -19.5 41.5t-43.5 18.5q-34 0 -52 -32t-27 -94q26 -6 49 -6z" />
    <glyph glyph-name="M" unicode="M" horiz-adv-x="854" 
d="M313 472q-5 24 -10 24q-7 0 -10 -31q-18 -171 -33 -241q-34 -163 -69 -227q-7 -12 -14.5 -19t-18 -10t-17 -3.5t-22 0t-23.5 0.5q-14 -1 -27.5 -9t-19.5 -8q-16 0 -16 17q0 6 21 42q30 49 47.5 81.5t45 106t45.5 158.5q36 165 49 275q3 33 39 33q29 0 48 -22
q13 -15 26 -57.5t32 -112.5t37 -121q12 -35 25 -35q16 0 32 44q24 61 85.5 230t87.5 233q14 33 31 33q36 0 65.5 -28.5t28.5 -56.5q-1 -44 -5 -172t-4 -183q0 -407 127 -626q6 -10 6 -17q0 -14 -24 -14q-7 0 -23 3.5t-24 3.5h-11h-11.5t-10.5 0.5t-11.5 2t-10 4t-11 6.5
t-9 9t-10 12.5t-8.5 16.5q-90 201 -90 562q0 68 8 160t8 95q0 22 -8 22q-7 0 -16 -27q-21 -63 -47 -149t-42 -138t-34.5 -103t-36 -75t-35.5 -24q-19 0 -34.5 18t-41 95.5t-56.5 221.5z" />
    <glyph glyph-name="N" unicode="N" horiz-adv-x="676" 
d="M124 151q20 62 36 130.5t31.5 144.5t21.5 101q24 112 69 112q38 0 65 -48q86 -151 149 -424q6 -24 12 -24t11 31q16 97 27.5 160t31.5 153.5t40 149t50.5 125t64 104.5t79.5 63.5t100 25.5q71 0 112 -29t41 -74q0 -40 -27 -67.5t-57 -27.5q-33 0 -33 18q0 7 12.5 24
t12.5 27q0 16 -18 26.5t-55 10.5q-42 0 -76 -17t-62 -54.5t-50.5 -85t-43 -120.5t-37 -148.5t-35.5 -180.5q-16 -88 -39 -285q-4 -38 -31 -38q-22 0 -42 25q-22 27 -49.5 95.5t-67.5 176t-76 186.5q-15 35 -25 35t-15 -45q-16 -129 -78 -384q-67 -280 -102 -280
q-16 0 -18 23q-4 33 -12 41q-6 6 -16.5 12t-15 11.5t-4.5 18.5q0 15 14 41.5t44.5 95.5t60.5 165z" />
    <glyph glyph-name="O" unicode="O" horiz-adv-x="751" 
d="M49 314q0 173 62.5 289t122.5 116q4 0 10 -2q19 46 66 76t112 30q114 0 197 -99t83 -272q0 -126 -42.5 -241.5t-124 -192t-182.5 -76.5q-142 0 -223 103.5t-81 268.5zM178 341q0 -81 18.5 -142.5t49 -95t64.5 -49.5t71 -16q60 0 105 36t69 96.5t35 125.5t11 136
q0 160 -51 246t-130 86q-112 0 -117 -127q-1 -15 -10 -27.5t-25 -12.5q-28 0 -32 37q-58 -92 -58 -293z" />
    <glyph glyph-name="P" unicode="P" horiz-adv-x="550" 
d="M308 -88q6 -30 -15 -30q-7 0 -22.5 13.5t-29.5 17.5l-17.5 3.5t-17 4t-12 6t-12 12.5t-8.5 21q-27 87 -27 275q0 291 55 451q-40 -11 -77.5 -35.5t-62.5 -43.5t-39 -19q-10 0 -16.5 7.5t-6.5 20.5q0 8 4.5 18.5t13.5 27t13 24.5q3 5 7.5 18t10.5 21.5t17 15.5
q108 66 217 66q119 0 204 -67t85 -191q0 -115 -88.5 -209.5t-227.5 -111.5q6 -84 52 -316zM254 296v-8q94 18 148.5 77t54.5 162q0 75 -53.5 119t-124.5 48l-5 -40q-20 -161 -20 -358z" />
    <glyph glyph-name="Q" unicode="Q" horiz-adv-x="761" 
d="M656 -59q-33 0 -125 96q-83 -69 -183 -69q-134 0 -214 107t-80 263q0 107 33.5 200.5t86.5 154.5t117.5 95.5t128.5 34.5q54 0 104.5 -23.5t91.5 -68t66 -117t25 -162.5q0 -87 -26.5 -174.5t-74.5 -156.5q38 -36 74 -62q40 -31 40 -50q0 -7 -3.5 -13t-7.5 -9t-11.5 -8.5
t-9.5 -7.5q-5 -3 -14 -16.5t-18 -13.5zM610 461q0 147 -54 221.5t-141 74.5q-98 0 -158 -110t-60 -284q0 -138 61 -222.5t136 -84.5q48 0 88 35q-93 109 -93 145q0 11 15 17.5t35 6.5q36 0 50 -10q4 -3 11 -11.5t21.5 -26t26.5 -31.5q62 126 62 280z" />
    <glyph glyph-name="R" unicode="R" horiz-adv-x="674" 
d="M315 851q24 -4 21 -60q150 -7 241.5 -81t91.5 -178q0 -84 -53.5 -152.5t-134.5 -96.5l2 -4q12 -23 32.5 -70.5t34 -74.5t41 -64.5t61.5 -67.5q11 -9 23 -18l18 -13.5t10 -9t4 -8.5q-1 -6 -21 -15q-11 -3 -33 -23t-40 -20q-52 0 -114.5 102.5t-119.5 271.5q-39 2 -66 22
t-27 53q0 23 17.5 36.5t40.5 13.5q56 0 103 -58q98 44 98 161q0 85 -59.5 142.5t-163.5 59.5q-45 -218 -72 -387q-16 -103 -23 -208.5t-9 -118.5q-8 -52 -28 -52q-9 0 -13 8t-10.5 22t-16.5 23q-8 7 -24 7t-24.5 6.5t-8.5 31.5q0 45 48.5 275.5t96.5 384.5
q-88 -20 -129 -81.5t-35 -135.5q3 -22 1 -35.5t-13 -13.5q-12 0 -27 23t-26 29q-8 4 -19 5.5t-15 3t-7.5 13.5t-3.5 37q0 85 87.5 164.5t220.5 90.5q26 63 43 60z" />
    <glyph glyph-name="S" unicode="S" horiz-adv-x="705" 
d="M129 533q0 37 21.5 77.5t58.5 76t96 58.5t127 23q87 0 118 -24q5 -1 3 -15t-1 -17q0 -4 6.5 -10t6.5 -11q0 -23 -14 -48t-35 -27q-7 -1 -18.5 9t-35.5 20.5t-58 10.5q-77 0 -136.5 -33t-59.5 -86q0 -14 5.5 -24.5t18.5 -18t25 -13t36 -9.5l39 -6.5t46 -6t46 -5.5
q51 -5 89.5 -15t77.5 -31t60.5 -59.5t21.5 -92.5q0 -97 -60.5 -175t-151 -118.5t-186.5 -40.5q-116 0 -182.5 48t-66.5 131q0 65 33.5 99.5t85.5 43.5q32 6 55 -0.5t23 -23.5q0 -22 -19 -26q-4 0 -12.5 -0.5t-15 -1t-9.5 -1.5q-39 -7 -39 -51q0 -42 52.5 -67.5t125.5 -25.5
q108 0 197 55.5t89 124.5q0 39 -25.5 66.5t-66.5 42.5t-90 26t-98.5 23t-90.5 28.5t-66.5 46.5t-25.5 73z" />
    <glyph glyph-name="T" unicode="T" horiz-adv-x="487" 
d="M34 777q10 0 52 -15t131.5 -30t213.5 -15q73 0 130.5 11t80.5 11q15 0 15 -7q0 -13 -37 -33t-124.5 -41.5t-199.5 -28.5q-9 -99 -9 -217q0 -49 3 -97t6 -81t10.5 -79.5t11 -66.5t14 -71t13.5 -65q2 -12 -2 -21t-13 -9q-7 0 -22.5 13.5t-29.5 17.5l-17.5 3.5t-17 4t-12 6
t-12 12.5t-8.5 21q-27 87 -27 275q0 195 29 351h-26q-55 0 -100 7.5t-72 18t-45.5 24t-25.5 23.5t-7 18q0 3 1 6t4 5.5t6 4.5t8.5 4.5t9 4t11 4.5t11.5 5q3 1 20 13.5t26 12.5z" />
    <glyph glyph-name="U" unicode="U" horiz-adv-x="716" 
d="M-2 711q0 5 9 10t24.5 12t26.5 16q7 5 19 16.5t19 16.5t21 9.5t32 4.5q53 0 105.5 -11.5t52.5 -30.5q0 -8 -3.5 -16.5t-13 -25.5t-15.5 -30q-95 -203 -95 -383q0 -89 32 -138.5t89 -49.5q46 0 83 42t61 116t39 165t20 198q1 32 28 32q29 0 54.5 -32.5t26.5 -65.5
q3 -251 21 -383.5t53 -209.5q3 -6 3 -11q0 -15 -20 -15q-6 0 -13.5 2t-13 4.5t-15.5 7.5l-16 8l-15 6t-14.5 6t-10.5 8t-9 15q-25 73 -38 249q-4 30 -14 30q-8 0 -15 -21q-41 -135 -101 -208.5t-129 -73.5q-77 0 -134 78t-57 195q0 112 36 215t96 213q-34 5 -91.5 5.5
t-87.5 4.5t-30 20z" />
    <glyph glyph-name="V" unicode="V" horiz-adv-x="630" 
d="M78 714q84 -84 155 -324q39 -127 53 -211q7 -42 18 -42q9 0 24 35q78 182 78 301q0 38 -9.5 90.5t-9.5 64.5q0 9 1.5 16.5t6 15t7 11.5t9.5 12.5t9 11.5q3 3 9 11t9.5 11.5t8.5 9t9.5 7.5t8.5 2q19 0 37 -26q38 -54 63.5 -77.5t60.5 -36.5q20 -8 20 -19t-8 -17
t-23.5 -11.5t-23.5 -12.5q-3 -3 -11.5 -14.5t-18.5 -11.5q-23 0 -48 14q-33 -126 -86 -261t-90.5 -211t-51.5 -93q-22 -29 -42 -29t-30 54q-47 248 -101.5 401t-160.5 306q-22 30 -22 39q0 17 25 17q14 0 31 -11t21 -11q6 0 15.5 5t16.5 5q20 0 40 -21z" />
    <glyph glyph-name="W" unicode="W" horiz-adv-x="1123" 
d="M491 426q0 -65 -8.5 -146t-8.5 -88q0 -28 12 -28q13 0 33 28q86 118 147 322q11 39 33.5 61.5t43.5 22.5q29 0 29 -37q0 -2 -0.5 -21t-0.5 -30q0 -98 12.5 -177t31.5 -159t27 -133q5 -38 14 -38q14 0 35 64q79 244 79 458q0 48 -4 90.5t-8.5 67.5t-4.5 31q0 13 19.5 27
t25.5 22q11 14 21 34t16.5 31.5t13.5 11.5q39 0 39 -208q0 -68 -11 -142.5t-21.5 -124t-39.5 -133t-38.5 -109t-48 -117t-39.5 -94.5q-14 -33 -41.5 -67.5t-47.5 -34.5t-24 37q-10 74 -54 246.5t-51 250.5q-50 -113 -113 -207.5t-108 -139t-65 -44.5q-16 0 -16 19
q0 9 18.5 158.5t18.5 250.5q0 167 -36 241.5t-130 74.5q-50 0 -91 -24.5t-85 -68.5q-9 -9 -23.5 -25.5t-22.5 -24t-14 -7.5q-10 0 -17.5 14t-13.5 16q-9 3 -25 4.5t-22.5 4.5t-6.5 12q0 18 25 50.5t64.5 65.5t98.5 57t118 24q60 0 106 -17.5t83 -57.5t56.5 -114t19.5 -180z
" />
    <glyph glyph-name="X" unicode="X" horiz-adv-x="491" 
d="M31 -24q0 13 13.5 54.5t52 124t91.5 171.5q-23 78 -44 195.5t-21 175.5q0 39 17 39q12 0 23 -10t15 -22q4 -10 12 -62t20.5 -122t26.5 -116q114 175 271 348q63 71 84 71q12 0 12 -12q0 -4 -3 -14t-3 -16q0 -3 3 -10t3 -9q0 -7 -19 -31q-183 -234 -300 -442
q38 -78 71.5 -112t67.5 -34t66 19t55.5 38t35.5 19q18 0 18 -31q0 -42 -51 -100q-60 -67 -137 -67q-55 0 -92 40.5t-82 139.5q-61 -119 -100 -225q-25 -68 -25 -69q-6 -8 -10 -8q-5 0 -9 3t-6 6t-7.5 11.5t-9.5 13.5t-21.5 16.5t-17.5 26.5z" />
    <glyph glyph-name="Y" unicode="Y" horiz-adv-x="571" 
d="M84 733q9 30 24 30q9 0 28 -14.5t28 -18.5q7 -3 19.5 -4.5t18.5 -4.5t6 -13q0 -6 -12.5 -63.5t-12.5 -97.5q0 -152 130 -152q91 0 148 87.5t73 258.5q4 35 22 35q42 0 42 -67q0 -60 -15 -123t-44.5 -123.5t-82.5 -103.5t-121 -53q-5 -87 0 -169.5t12 -136t7 -58.5
q0 -23 -17 -23q-8 0 -21.5 8.5t-25.5 12.5q-5 2 -20 5.5t-19.5 6t-14 10t-12.5 18t-6 30t-3 46.5q0 104 21 254q-90 17 -136 83t-46 163q0 80 30 177z" />
    <glyph glyph-name="Z" unicode="Z" horiz-adv-x="617" 
d="M647 681q-111 -89 -186 -153t-156 -142t-122.5 -140.5t-41.5 -107.5q0 -74 129 -74q58 0 140.5 14t126.5 26q34 10 37 10q13 0 13 -16q0 -8 -4 -26t-4 -24t7 -14t7 -15q0 -15 -40 -35q-37 -20 -115.5 -36.5t-166.5 -16.5q-98 0 -164.5 45t-66.5 118q0 229 544 602
q-48 2 -76 2q-70 0 -160.5 -10.5t-115.5 -10.5q-20 0 -29 5t-15 17t-11 17q-8 8 -19.5 14t-17.5 10.5t-6 13.5q0 19 102 38t212 19q248 0 248 -39q0 -21 -12.5 -46.5t-36.5 -44.5z" />
    <glyph glyph-name="bracketleft" unicode="[" horiz-adv-x="433" 
d="M64 125q0 218 35 413t96 239q21 15 78 29.5t119 14.5q49 0 49 -24q0 -10 -8 -21t-16 -15q-6 -3 -14.5 -5t-16 -2.5t-21.5 -1.5t-24 -2q-37 -3 -55 -11t-36 -26q-83 -83 -83 -451q0 -168 13 -257.5t37 -119.5t68 -30q29 0 72.5 13t48.5 13q8 0 8 -7q0 -6 -9 -24t-9 -25
q0 -3 2 -11t2 -13q0 -26 -48.5 -46t-94.5 -20q-63 0 -104 33.5t-65 121.5t-24 235z" />
    <glyph glyph-name="backslash" unicode="\" horiz-adv-x="767" 
d="M638 -65q-62 50 -144.5 147t-153.5 201q-84 123 -164.5 281t-80.5 200q0 19 22 19q17 0 45 -42q5 -7 40 -67t81 -131t98 -143q105 -145 265 -305q23 -23 23 -51q0 -10 -4 -28t-4 -27q0 -10 5.5 -25.5t5.5 -20.5q0 -14 -18 -14q-8 0 -16 6z" />
    <glyph glyph-name="bracketright" unicode="]" horiz-adv-x="433" 
d="M103 -215q-41 0 -80 15t-39 44q0 20 23 20q10 0 36.5 -4.5t43.5 -4.5q131 0 165 239t-38 617q-86 13 -132 16q-25 4 -45.5 25t-20.5 45q0 20 91 20q63 0 137 -14q45 -9 66 -38t33 -91q51 -274 31.5 -471.5t-92 -307.5t-179.5 -110z" />
    <glyph glyph-name="asciicircum" unicode="^" 
d="M29 449q0 45 32.5 117.5t90 133.5t115.5 61q36 0 71.5 -19.5t62.5 -49t48 -62.5t32 -60.5t11 -41.5q0 -22 -5.5 -33.5t-23.5 -17.5q-11 -4 -27.5 -31t-23.5 -27q-16 0 -26 27q-29 83 -71.5 147.5t-88.5 64.5q-39 0 -78 -56t-70 -135q-19 -47 -34 -47q-15 2 -15 29z" />
    <glyph glyph-name="underscore" unicode="_" horiz-adv-x="461" 
d="M414 -43q19 -3 25 -9t6 -15q0 -4 -2 -15t-2 -17q0 -4 4 -12t4 -15q0 -14 -20 -14q-2 0 -33 1.5t-77.5 3t-87.5 1.5q-44 0 -100 -4.5t-60 -4.5q-19 0 -38.5 23.5t-19.5 44.5q0 15 68 29t153 14q115 0 180 -11z" />
    <glyph glyph-name="grave" unicode="`" 
d="M264 702q25 -29 40.5 -69.5t15.5 -70.5q0 -38 -19 -38q-31 0 -105 88q-56 63 -56 88q0 7 5 9.5t14 4.5t14 6q3 2 9 8.5t11.5 9.5t11.5 3q26 0 59 -39z" />
    <glyph glyph-name="a" unicode="a" horiz-adv-x="472" 
d="M277 478q61 0 108.5 -24.5t47.5 -46.5q0 -8 -8 -8q-3 0 -7.5 0.5t-6.5 0.5q-4 0 -11 -5.5t-12 -5.5q-2 0 -34 16q5 -32 8 -45q8 -34 11.5 -48.5t11.5 -44t14 -43.5t15.5 -31t19.5 -24t22 -7q24 0 52.5 23.5t42.5 23.5q19 0 19 -19q0 -28 -31.5 -71t-76.5 -43
q-30 0 -53.5 14.5t-37 35.5t-22.5 42t-15 35.5t-11 14.5q-4 0 -10.5 -8t-17.5 -24t-18 -26q-48 -61 -123 -61q-52 0 -89 36.5t-37 104.5q0 95 73 166.5t176 71.5zM132 272q0 -57 46 -57q31 0 56.5 41.5t33.5 122.5q3 22 30 44q-6 1 -20 1q-58 0 -102 -47t-44 -105z" />
    <glyph glyph-name="b" unicode="b" horiz-adv-x="471" 
d="M145 391q0 -58 15 -58q9 0 24 22q92 135 172 135q41 0 68.5 -30.5t27.5 -91.5q0 -69 -32 -144.5t-88.5 -129t-117.5 -53.5q-24 0 -56 18q-2 1 -11 7q-24 1 -38 8.5t-22 30.5q-34 92 -34 299q0 146 13 288q6 67 40 67q22 0 43.5 -22.5t21.5 -52.5q0 -3 -13 -125.5
t-13 -167.5zM165 157q0 -23 8 -47q52 8 92 52q80 92 80 195q0 44 -29 44q-23 0 -59 -43.5t-64 -102.5t-28 -98z" />
    <glyph glyph-name="c" unicode="c" horiz-adv-x="399" 
d="M287 28q-119 0 -191.5 56.5t-72.5 139.5q0 104 79.5 188.5t177.5 84.5q66 0 66 -50q0 -25 -14.5 -40.5t-36.5 -15.5q-8 0 -29 2t-32 2q-47 0 -87 -30t-40 -80q0 -68 57.5 -109t141.5 -41q52 0 85 17.5t63 47.5q39 37 53 37q13 0 13 -31q0 -42 -51 -95q-81 -83 -182 -83z
" />
    <glyph glyph-name="d" unicode="d" horiz-adv-x="508" 
d="M442 71q-10 -4 -17.5 -19t-25.5 -15q-55 0 -86 131q-76 -78 -141 -78q-57 0 -93.5 38.5t-36.5 105.5q0 59 24 109.5t62 82.5t79.5 51.5t81.5 24.5q11 1 20 3q39 280 154 280q80 0 80 -119q0 -178 -140 -385q23 -150 83 -178q8 -4 8 -12q0 -16 -16 -16q-26 0 -36 -4z
M393 416q0 -31 1 -47q3 5 20 39t23 47.5t20 46.5t19.5 55t11 53.5t5.5 60.5q0 48 -28 48q-33 0 -52.5 -102.5t-19.5 -200.5zM297 317q0 39 3 89q-63 -6 -119 -54.5t-56 -128.5q0 -26 15.5 -45.5t39.5 -19.5q52 0 121 85q-4 32 -4 74z" />
    <glyph glyph-name="e" unicode="e" horiz-adv-x="419" 
d="M307 28q-69 0 -131 24.5t-105.5 79.5t-43.5 130q0 92 54 147t140 55q61 0 104 -27t43 -71t-33.5 -71t-80.5 -27q-63 0 -119 38q-1 -7 -1 -22q0 -66 56 -107.5t136 -41.5q70 0 120 41q12 10 30 27.5t29 25.5t22 8q13 0 13 -31q0 -42 -51 -95q-81 -83 -182 -83zM222 417
q-66 0 -83 -78q35 -7 64 -7q36 0 53.5 13t17.5 31q0 17 -16 29t-36 12z" />
    <glyph glyph-name="f" unicode="f" horiz-adv-x="309" 
d="M136 -177q-92 0 -92 274q0 57 5 134q-45 16 -45 40q0 16 54 55q20 161 51 272q25 102 68 155t86 53q27 0 44 -17t17 -34q0 -5 -8.5 -10.5t-23.5 -19t-33 -37.5t-40 -76t-42 -125q-16 -57 -26 -108q71 34 111 34q14 0 19 -6t6.5 -19t5.5 -19q16 -32 16 -38q0 -25 -58 -38
q-45 -9 -98 -36q35 -39 61.5 -112.5t26.5 -143.5q0 -73 -32 -125.5t-73 -52.5zM112 38q0 -117 29 -117q11 0 18.5 14.5t7.5 35.5q0 33 -15 73t-37 71q-3 -42 -3 -77z" />
    <glyph glyph-name="g" unicode="g" 
d="M463 16q0 -141 -75 -218t-192 -77q-78 0 -125.5 38.5t-47.5 90.5q0 27 16 51.5t37.5 42.5t61 39t70.5 34t82 34.5t80 34.5q-7 33 -16 64q-8 28 -18 28t-24 -24q-26 -43 -65.5 -72.5t-84.5 -29.5q-59 0 -95.5 39t-36.5 117q0 114 94.5 200t204.5 86q54 0 92 -12
q15 -5 29 -46q2 -7 9.5 -16t7.5 -14q0 -13 -15 -13q-10 0 -40 7t-58 12.5t-66.5 3.5t-70.5 -18q-41 -20 -59 -68.5t-18 -93.5q0 -92 65 -92q57 0 131 159q9 21 33 37t43 16q18 0 24 -8t6 -27v-72q0 -24 11 -121q57 34 87 66q20 21 29 21q4 0 7 -1.5t4.5 -4.5t2.5 -5.5
t2 -7.5t2 -8q1 -4 8 -11t7 -10q0 -6 -6 -17q-40 -65 -134 -109q1 -8 1 -25zM381 -61q0 46 -2 70q-29 -10 -75 -23.5t-73 -22t-55.5 -21t-42 -27t-13.5 -32.5q0 -35 39 -55.5t89 -20.5q55 0 94 35.5t39 96.5z" />
    <glyph glyph-name="h" unicode="h" horiz-adv-x="456" 
d="M254 172q-3 21 -6 43.5t-4 36t-3 25.5t-4.5 17t-7.5 5q-23 0 -63.5 -95t-40.5 -165v-75q0 -37 -4 -55.5t-20 -18.5q-19 0 -42 32.5t-23 72.5q0 33 1.5 81.5t5.5 131t13.5 157.5t23 145.5t37 113t52.5 42.5q27 0 42.5 -29.5t15.5 -76.5q0 -75 -96 -186q-9 -74 -9 -123
q0 -15 5 -15q4 0 10 13q62 150 124 150q39 0 55 -30t20 -83q8 -93 23 -123t44 -30q31 0 58 19t47.5 38t36.5 19q7 0 13 -5.5t6 -15.5q0 -37 -54 -98q-62 -69 -124 -69q-108 0 -132 151z" />
    <glyph glyph-name="i" unicode="i" horiz-adv-x="286" 
d="M42 611q0 20 47.5 49t79.5 29q6 0 7.5 -4t1.5 -10v-14t3 -13q1 -3 11 -12.5t10 -17.5q0 -19 -25.5 -43.5t-51.5 -24.5q-31 0 -57 19t-26 42zM120 272q0 -75 25.5 -107t63.5 -32q34 0 65.5 19t55 38t36.5 19q24 0 24 -24q0 -29 -33 -72q-70 -91 -161 -91q-63 0 -105 50
t-42 152q0 55 21 164t38 109q15 0 23.5 -15t8.5 -31q0 -2 -10 -67t-10 -112z" />
    <glyph glyph-name="j" unicode="j" horiz-adv-x="300" 
d="M46 632q0 13 19.5 19.5t58 19t69.5 33.5q5 4 10 4q9 0 16 -6t7 -15q0 -5 -2 -13.5t-2 -11.5q0 -6 6 -13t6 -13q0 -26 -26.5 -48t-57.5 -22q-35 0 -69.5 20.5t-34.5 45.5zM74 426q5 22 30.5 37.5t45.5 15.5q18 0 24 -8t6 -27v-72q0 -44 10 -149.5t12 -136.5q96 52 145 108
q18 21 29 21q5 0 8.5 -3t4.5 -6t2.5 -9.5t2.5 -9.5t6.5 -8t5.5 -8q0 -7 -6 -16q-57 -94 -195 -148q-2 -134 -56.5 -207.5t-133.5 -73.5q-52 0 -82.5 34t-30.5 86q0 33 14.5 60.5t47 51.5t60 39.5t77.5 39.5q-28 204 -32 251q-6 96 5 138zM-27 -126q0 -29 17 -45t46 -16
q31 0 56 23.5t25 60.5q0 19 -7 77q-47 -15 -71.5 -25.5t-45 -30t-20.5 -44.5z" />
    <glyph glyph-name="k" unicode="k" horiz-adv-x="399" 
d="M317 38q-111 0 -182 141q1 -32 2.5 -86.5t1.5 -63.5q0 -23 -5.5 -33.5t-24.5 -10.5q-41 0 -48 81q-14 129 -14 277q0 171 27 263t79 92q23 0 40.5 -28t17.5 -67q0 -67 -70 -174q-1 -20 -3 -62t-2 -62q41 78 90.5 127t86.5 49q25 0 37 -17.5t12 -37.5q0 -24 -10.5 -41
t-20 -23.5t-30 -14.5t-21.5 -9q-71 -35 -103 -82q28 -52 71.5 -81.5t87.5 -29.5q31 0 59.5 14.5t44.5 31.5t32 31.5t25 14.5q6 0 11 -8t5 -23q0 -16 -11.5 -45.5t-38.5 -57.5q-63 -65 -146 -65z" />
    <glyph glyph-name="l" unicode="l" horiz-adv-x="287" 
d="M122 286q0 -77 25.5 -115t67.5 -38q34 0 66 19t55.5 38t35.5 19q18 0 18 -21q0 -34 -50 -94q-62 -73 -138 -73q-62 0 -104.5 54.5t-42.5 175.5q0 224 48 393t111 169q20 0 34 -28.5t14 -70.5q0 -75 -40 -155.5t-90 -125.5q-10 -90 -10 -147z" />
    <glyph glyph-name="m" unicode="m" horiz-adv-x="643" 
d="M644 42q0 -7 -15 -7q-21 0 -50 13.5t-43 30.5q-15 19 -23 48q-7 22 -12.5 71t-14.5 77t-30 28q-19 0 -43.5 -50.5t-42.5 -123.5q-14 -61 -33 -61q-16 0 -31.5 11.5t-15.5 30.5q0 20 -1.5 45.5t-5.5 68.5t-15.5 71t-28.5 28q-44 0 -104 -279q-13 -58 -43 -58q-10 0 -25 5
q-32 11 -32 39q0 18 2.5 43l6 60t5.5 54q5 57 5 187q0 54 18 54q25 0 37 -25t23 -85q3 -18 12 -18q5 0 11 12q22 50 47 78.5t59 28.5q30 0 52 -30t42 -93q5 -15 13 -15q6 0 12 11q15 28 22.5 41t21.5 31.5t29 26.5t33 8q49 0 75 -40q16 -23 36 -131t42 -168q5 -15 5 -18z
" />
    <glyph glyph-name="n" unicode="n" horiz-adv-x="510" 
d="M268 428q18 0 32.5 -6t25 -20t18 -27t14 -36t9.5 -37.5t8 -40.5q12 -62 30 -95t55 -33q36 0 79 38t61 38q6 0 8.5 -0.5t6 -5.5t3.5 -15q0 -34 -50 -94q-62 -73 -133 -73q-55 0 -85 37t-47 111q-5 19 -10.5 50.5t-9.5 50t-10.5 38.5t-15.5 29.5t-21 9.5q-37 0 -70.5 -84.5
t-43.5 -214.5q-3 -35 -23 -35q-18 0 -33.5 16.5t-17.5 37.5q-1 17 4 102.5t2 117.5l-4.5 45t-2.5 32q-1 15 12 16q27 3 43 -15q11 -13 18 -68q1 -13 8 -13t14 18q51 126 126 126z" />
    <glyph glyph-name="o" unicode="o" horiz-adv-x="456" 
d="M522 254q-50 -42 -120 -58q-21 -87 -76 -148t-134 -61q-66 0 -115.5 51t-49.5 152q0 42 16 94t50 90q26 29 58 33q14 31 42.5 48t62.5 17q66 0 107 -50.5t48 -119.5q75 19 119 51q12 9 21 9t9 -9q0 -5 -2.5 -11.5t-7.5 -17t-8 -18.5q-1 -3 -2 -14.5t-5 -20.5t-13 -17z
M206 360q0 -26 24.5 -49t73.5 -23q23 0 47 3q-6 63 -31.5 94t-56.5 31q-25 0 -41 -15t-16 -41zM114 206q0 -55 32 -88.5t77 -33.5q38 0 70 27.5t48 74.5q-15 -1 -39 -1q-64 0 -109.5 37.5t-52.5 104.5q-26 -42 -26 -121z" />
    <glyph glyph-name="p" unicode="p" horiz-adv-x="452" 
d="M156 366q0 -19 8 -19t20 20q31 49 75 86t87 37q41 0 68.5 -30.5t27.5 -91.5q0 -96 -55 -190.5t-116 -94.5q-24 0 -56 18q-28 16 -28 29q0 9 8 12.5t19.5 4.5t30.5 11t36 29q22 25 38 75t16 95q0 44 -29 44q-23 0 -59 -43.5t-64 -102.5t-28 -98q0 -112 83 -332
q6 -19 6 -30q0 -20 -20 -20q-9 0 -24.5 4t-19.5 4q-18 0 -28.5 6.5t-18.5 27.5q-39 104 -62.5 286.5t-23.5 378.5q0 17 0.5 25.5t3 20t9 16.5t17.5 5q24 0 54 -27.5t30 -59.5q0 -13 -2.5 -51.5t-2.5 -44.5z" />
    <glyph glyph-name="q" unicode="q" horiz-adv-x="507" 
d="M337 151q0 22 -10 22q-9 0 -17 -10q-70 -73 -137 -73q-57 0 -93.5 38.5t-36.5 105.5q0 68 29 122.5t74 85.5t93 47t92 16q20 0 32 -3q0 10 -0.5 30t-0.5 31q0 32 14 32q32 0 56.5 -67t24.5 -175q0 -317 -73 -515q-9 -21 -23 -28.5t-33.5 -8.5t-26.5 -3q-23 -9 -27 -9
q-14 0 -14 14q0 8 21 70q22 63 39 151t17 127zM126 223q0 -26 15.5 -45.5t39.5 -19.5q45 0 105 62t73 144q3 18 5 51q-36 0 -75 -11.5t-77 -33t-62 -60t-24 -87.5z" />
    <glyph glyph-name="r" unicode="r" horiz-adv-x="450" 
d="M335 342q-2 -51 -1 -90t6.5 -65.5t20 -40t39.5 -13.5q36 0 79 38t61 38t18 -21q0 -34 -50 -94q-62 -73 -133 -73q-59 0 -98 50t-39 153q0 12 1 54t1 52q0 25 -14.5 39.5t-47.5 29.5q-30 -211 -118 -293q-17 -16 -30 -18t-19 6.5t-8.5 20.5t0.5 25t9 19q108 111 115 281
q-33 25 -33 76q0 16 3 32.5t14.5 33t29.5 16.5q17 0 38.5 -49.5t30.5 -57.5q2 -2 25.5 -15.5t44 -29t38.5 -44t17 -60.5z" />
    <glyph glyph-name="s" unicode="s" horiz-adv-x="391" 
d="M327 518q19 0 28 -11t9 -25q0 -16 -34 -35.5t-34 -32.5q0 -28 25.5 -93.5t25.5 -100.5q0 -65 -47 -111t-107 -46q-102 0 -165 86q-36 47 -36 90q0 27 21 27q6 0 14 -6.5t22.5 -22t23.5 -23.5q79 79 135 142q-6 20 -6 36q0 52 42 89t83 37zM246 229q0 15 -18 67
q-58 -72 -104 -121q30 -16 62 -16q26 0 43 19.5t17 50.5z" />
    <glyph glyph-name="t" unicode="t" horiz-adv-x="282" 
d="M197 21q-67 0 -107 54.5t-40 175.5q0 86 17 227q-23 0 -51.5 18t-28.5 38q0 12 28 33.5t70 39.5q21 113 36 113q6 0 10.5 -3t7 -6.5t3.5 -10.5t1 -11v-12v-9q0 -13 -4 -42q54 16 110 16q21 0 28 -11t4.5 -24.5t2.5 -26.5q1 -4 7 -10t6 -13q0 -15 -20 -21q-18 -7 -77 -20
q-37 -9 -73 -20q-10 -132 -10 -210q0 -84 27 -118.5t66 -34.5t71 19t53 38t33 19q6 0 8.5 -0.5t6 -5.5t3.5 -15q0 -34 -50 -94q-62 -73 -138 -73z" />
    <glyph glyph-name="u" unicode="u" horiz-adv-x="540" 
d="M522 161q24 0 52.5 23.5t42.5 23.5q19 0 19 -19q0 -28 -32.5 -71t-83.5 -43q-79 0 -112 81q-5 12 -7.5 26t-3.5 23.5t-2.5 18t-4.5 13t-9 4.5q-2 0 -4 -1t-4 -3.5t-3.5 -5t-4.5 -8t-5 -10t-5.5 -12.5t-6.5 -14q-65 -135 -170 -135q-58 0 -91.5 50t-33.5 128
q0 96 29.5 186t68.5 90q18 0 36.5 -19.5t18.5 -40.5q0 -3 -19 -89t-19 -147q0 -29 11 -50.5t32 -21.5q24 0 45 18.5t39 53.5t31 66.5t28 73.5q1 4 1.5 5.5l1.5 4.5t2 5.5t2 4.5q9 25 31 39t44 14q44 0 44 -57q0 -12 -9 -60.5t-9 -62.5q0 -40 17.5 -61t42.5 -21z" />
    <glyph glyph-name="v" unicode="v" horiz-adv-x="469" 
d="M526 242q-54 -43 -128 -50q-8 -43 -23.5 -84t-41 -80.5t-65 -63.5t-86.5 -24q-64 0 -106.5 57.5t-42.5 158.5q0 117 31 193q12 29 27 29q18 0 40 -33t22 -57q0 -26 -6.5 -71t-6.5 -78q0 -46 19.5 -78.5t51.5 -32.5q43 0 78 47t42 120q-43 9 -69 39t-26 74q0 29 19 55
t53 26q31 0 55.5 -28.5t35.5 -66.5q74 13 140 59q12 9 21 9t9 -9q0 -5 -2.5 -11.5t-7.5 -17t-8 -18.5q-1 -3 -1 -16t-5.5 -25t-18.5 -23z" />
    <glyph glyph-name="w" unicode="w" horiz-adv-x="653" 
d="M298 75q-5 0 -18 -21t-28.5 -46.5t-43 -46.5t-57.5 -21q-50 0 -84 57.5t-34 158.5q0 126 31 193q14 29 27 29q18 0 40 -33t22 -57q0 -23 -4.5 -64.5t-4.5 -71.5q0 -111 43 -111q24 0 54 57.5t45 126.5q11 53 20 60q4 3 9 3q27 0 36 -47q2 -6 4.5 -31t7 -50.5t11.5 -52.5
t21.5 -44t34.5 -17q35 0 57.5 43t28.5 106q-42 12 -69 42.5t-27 70.5q0 29 19 55t53 26q32 0 56.5 -29t34.5 -67q70 11 130 54q22 15 31 15t9 -9q0 -5 -2.5 -11.5t-7.5 -17t-8 -18.5q-1 -3 -2 -14.5t-5 -20.5t-13 -17q-61 -51 -130 -61q-11 -92 -51.5 -156t-111.5 -64
q-33 0 -56 16t-32 35t-18.5 35t-17.5 16z" />
    <glyph glyph-name="x" unicode="x" horiz-adv-x="381" 
d="M42 19q0 18 24.5 70.5t63.5 112.5q0 2 -2 5.5t-2 4.5q-18 44 -41 145t-23 146q0 25 15 25q24 0 38 -32q1 -2 22.5 -83.5t36.5 -117.5q1 -4 4 -10l5 -10q39 49 68 79l9 9q56 57 71 61l4 1q5 0 8.5 -4t3.5 -8t-3 -14t-3 -16q0 -2 3 -8.5t3 -9.5q0 -7 -19 -32
q-56 -77 -96 -140q39 -50 84 -50q8 0 15.5 1t13.5 2t13.5 4t11.5 4t11 5.5t9.5 6t9.5 7t8 6.5t8 7l8 6q34 27 47 27q18 0 18 -31q0 -42 -51 -100q-60 -67 -137 -67q-70 0 -121 83q-25 -46 -38 -83q-4 -12 -11 -31q-11 -32 -14.5 -38.5t-9.5 -6.5t-18 16q-8 10 -20.5 19.5
t-19.5 18t-7 20.5z" />
    <glyph glyph-name="y" unicode="y" horiz-adv-x="471" 
d="M311 160q-9 29 -19 29q-7 0 -17 -16q-56 -95 -110 -95q-55 0 -83.5 47.5t-37.5 146.5q-6 66 -6 155q0 28 8 37.5t30 9.5q23 0 45 -14t23 -48q0 -16 -0.5 -56t0 -68.5t3.5 -60t13 -48.5t26 -17q21 0 39 16.5t32 46t23 53t18.5 55.5t10.5 36q9 28 31.5 40.5t44.5 12.5
q18 0 24 -8t6 -27q0 -17 -4.5 -69.5t-1.5 -97.5q5 -57 9 -105q52 32 90 76q18 21 29 21q5 0 7.5 -3t3.5 -7t2.5 -11t2.5 -10q1 -4 8 -12t7 -12q0 -6 -6 -17q-40 -65 -138 -111q2 -71 -13 -130q-21 -83 -84.5 -125.5t-150.5 -42.5q-58 0 -102.5 31.5t-44.5 87.5
q0 100 144 155q117 44 160 64q-6 40 -22 91zM126 -117q0 -31 23.5 -48t62.5 -17q52 0 90.5 32t38.5 97q0 33 -1 49q-19 -7 -62.5 -20t-62 -20t-44 -19t-35.5 -25t-10 -29z" />
    <glyph glyph-name="z" unicode="z" horiz-adv-x="480" 
d="M130 -141q0 27 14 54t32.5 46.5t53.5 43.5t58 37.5t66 36.5q-7 38 -21 59.5t-36 15.5q-53 -12 -73 -12q-63 0 -63 51q0 28 22.5 38.5t68.5 11.5q32 57 32 86q0 23 -33.5 44.5t-73.5 22.5q-31 -209 -117 -288q-19 -18 -35 -18q-23 0 -23 37q0 24 10 34q98 99 113 253
q-40 31 -40 89q0 30 16 63.5t40 33.5q23 0 37.5 -31t11.5 -74q2 -2 31.5 -16t57 -30t52 -45t25.5 -60q0 -11 -2 -22t-8 -24t-10 -21t-12.5 -23.5t-11.5 -20.5q73 -32 110 -116q72 43 98 79q15 21 29 21q4 0 7 -0.5t4.5 -3t2 -4.5l2 -8t2.5 -9q1 -4 8 -12t7 -12q0 -8 -6 -17
q-41 -63 -134 -111q1 -7 1 -22q0 -128 -51.5 -197.5t-135.5 -69.5q-47 0 -86.5 31.5t-39.5 78.5zM222 -105q0 -36 20.5 -56t50.5 -20t49.5 38t19.5 120v24q-39 -17 -56 -25t-41 -22.5t-33.5 -28t-9.5 -30.5z" />
    <glyph glyph-name="braceleft" unicode="{" horiz-adv-x="503" 
d="M48 311q56 10 84.5 51t32.5 87.5t11.5 115t23.5 111.5q30 84 88.5 117t147.5 33q75 0 75 -27q0 -6 -2 -10.5t-7 -8t-10.5 -5t-16.5 -3t-20 -2.5t-25 -2.5t-29 -3.5q-38 -5 -59.5 -28t-29 -61t-9.5 -77.5t-6 -89t-13 -83.5q-32 -114 -164 -140q120 -20 152 -126
q10 -34 14.5 -81t6 -81t8 -66t25 -49t52.5 -17q26 0 59 8.5t39 8.5q8 0 8 -7q0 -4 -7 -17.5t-7 -19.5q0 -2 0.5 -4t0.5 -4q0 -23 -31 -40q-47 -25 -113 -25q-124 0 -150 155q-5 33 -8 85.5t-6.5 87t-14 71.5t-35.5 58t-66 27q-24 3 -34.5 8t-10.5 17q0 28 46 37z" />
    <glyph glyph-name="bar" unicode="|" horiz-adv-x="407" 
d="M131 275q0 204 12 383.5t36 179.5q19 0 42 -24t23 -57q0 -30 -1.5 -136t-1.5 -123q0 -378 54 -646q2 -12 -2 -21t-13 -9q-7 0 -22.5 13.5t-29.5 17.5l-17.5 3.5t-17 4t-12 6t-12 12.5t-8.5 21q-11 36 -20.5 147t-9.5 228z" />
    <glyph glyph-name="braceright" unicode="}" horiz-adv-x="503" 
d="M455 279q-46 -7 -72.5 -32.5t-36.5 -65t-14 -80.5t-10 -92.5t-19 -87.5q-20 -58 -59.5 -96.5t-113.5 -48.5q-56 -9 -97 -3t-41 25q0 4 1 8t4.5 6.5t6.5 4.5t9.5 3.5t12 3t15 2.5t17.5 2t21 2.5t23 2.5q38 5 59.5 28t29 61t9.5 77.5t6 89t13 83.5q32 114 166 141
q-112 22 -143 131q-13 45 -18 111.5t-7 108.5t-22.5 74t-64.5 32q-18 0 -41 -9q-30 -11 -30 13q0 10 12.5 22.5t42 24t66.5 11.5q66 0 106 -43t51 -106q5 -29 7.5 -72t4 -75.5t7.5 -69t16 -60.5t31.5 -41.5t52.5 -21.5q45 -5 45 -28q0 -13 -12 -23t-34 -13z" />
    <glyph glyph-name="asciitilde" unicode="~" 
d="M344 340q30 0 66.5 26.5t50.5 26.5q16 0 16 -17q0 -29 -42 -79q-54 -61 -112 -61q-28 0 -52.5 15t-39 33.5t-35 33.5t-41.5 15q-30 0 -66.5 -26.5t-50.5 -26.5q-15 0 -15 17q0 29 42 79q25 30 49.5 45.5t61.5 15.5q33 0 63 -24.5t56 -48.5t49 -24z" />
    <glyph glyph-name="nbspace" unicode="&#xa0;" horiz-adv-x="195" 
 />
    <glyph glyph-name="exclamdown" unicode="&#xa1;" horiz-adv-x="492" 
d="M190 438q0 22 56 48.5t91 26.5q10 0 13.5 -10.5t3.5 -25.5t2 -19q1 -2 4 -7t5 -10t2 -10q0 -19 -24.5 -36t-53.5 -17q-36 0 -67.5 18t-31.5 42zM259 219q0 -6 -2 -16q-26 -106 -26 -251q0 -41 4 -102.5t4 -79.5q0 -35 -25.5 -69.5t-41.5 -34.5q-24 0 -39 42t-15 123
q0 105 22 222t46 173q22 49 40 49q11 0 22 -18.5t11 -37.5z" />
    <glyph glyph-name="cent" unicode="&#xa2;" horiz-adv-x="408" 
d="M136 -272q-10 0 -10 15t5.5 56t13.5 103.5t13 115.5q-117 39 -117 177q0 64 35 123t81 91q-4 47 -9 88.5t-8.5 67.5t-4.5 33q-1 38 4 44q4 6 15 6q22 0 40.5 -17.5t24.5 -53.5q10 -67 13 -139q8 1 22 1q43 0 73 -26t30 -58q0 -34 -22.5 -58t-44.5 -24q-26 0 -35 47
q-4 27 -20 35v-135q0 -52 -4 -96h5q49 0 87 18q44 20 53 20t9 -10q0 -7 -6 -19t-6 -20q0 -6 4 -14t4 -12q0 -24 -42 -52.5t-105 -28.5h-14q-16 -116 -39 -197t-45 -81zM122 222q0 -57 44 -82v28q0 98 -4 159q-40 -45 -40 -105z" />
    <glyph glyph-name="sterling" unicode="&#xa3;" horiz-adv-x="550" 
d="M108 79q29 0 84 -11q18 24 18 56q0 34 -31 103q-82 -8 -85 -8q-17 0 -37.5 14.5t-20.5 27.5q0 19 110 40q-21 56 -21 92q0 96 69 171t180 75q73 0 108 -22q14 -9 14 -41q0 -30 -14 -53.5t-31 -23.5q-6 0 -21 10t-43 20t-67 10q-50 0 -80 -20.5t-30 -56.5q0 -8 1.5 -17
t3 -16.5t5 -19t5.5 -17.5t8 -19.5l8 -18t9 -20t9 -19.5q45 3 92 3q81 0 81 -21q0 -2 -1 -8t-1 -9q0 -7 5 -13t5 -11q0 -10 -17 -12q-4 -1 -23 -1.5t-51.5 -1.5t-61.5 -3q9 -30 9 -60q0 -45 -49 -120q50 -10 91 -10q40 0 92.5 11.5t65.5 11.5q20 0 20 -15q0 -6 -4 -12
t-12.5 -14t-12.5 -13q-2 -3 -10.5 -22t-18.5 -24q-36 -20 -107 -20q-66 0 -155 33q-43 -38 -94 -38q-39 0 -65.5 19.5t-26.5 45.5q0 31 28 49.5t70 18.5z" />
    <glyph glyph-name="currency" unicode="&#xa4;" horiz-adv-x="463" 
d="M64 189q6 14 36 66q-36 49 -36 112q0 80 41 128q-29 39 -29 71q0 22 7 38.5t21 16.5q2 0 5 -1t6.5 -3t7 -4.5t8 -6.5t8.5 -7.5t10 -9t10 -10t11.5 -11.5t12.5 -12q27 27 69 27q35 0 63 -16q36 46 57 71q57 66 80 66q15 0 15 -16q0 -15 -37 -69q-7 -11 -20 -31
t-23.5 -36.5t-19.5 -31.5q32 -48 32 -123q0 -54 -23 -100q39 -67 39 -95q0 -16 -20 -31t-27 -28q-8 -13 -19 -13q-6 0 -9 4q-2 2 -16.5 31.5t-24.5 46.5q-35 -20 -78 -20q-24 0 -44 7l-9 -18l-7.5 -15l-7 -14t-5.5 -11.5t-5.5 -10t-5.5 -8t-5.5 -7t-5.5 -4.5t-6 -3t-7 -1
q-21 0 -38 16.5t-17 36.5q0 15 6 29zM165 404q0 -56 27.5 -91t62.5 -35q33 0 56.5 33.5t23.5 82.5q0 54 -23 83t-53 29q-15 0 -28.5 -19.5t-30.5 -19.5q-14 0 -25 9q-10 -36 -10 -72z" />
    <glyph glyph-name="yen" unicode="&#xa5;" horiz-adv-x="501" 
d="M70 97q50 11 112 17q0 11 2 35h-2q-30 -1 -71 -3.5t-50 -2.5q-16 0 -36.5 13t-20.5 23q0 18 186 33q2 26 6 51q-70 14 -106 66t-36 127q0 65 14.5 113.5t31.5 48.5q7 0 20.5 -11.5t19.5 -14.5q9 -5 23 -6t22.5 -2.5t8.5 -8.5q0 -5 -9.5 -50t-9.5 -76q0 -108 81 -108
q71 0 116 66t57 194q3 27 17 27q33 0 33 -52q0 -47 -11.5 -96.5t-34.5 -96.5t-64.5 -81t-94.5 -41q0 -15 -2 -45q17 1 49 1q56 0 88 -4q21 -2 21 -14q0 -3 -1.5 -9.5t-1.5 -10.5q0 -3 4 -7t4 -8q0 -12 -22 -12q-12 0 -142 -2v-1v-30q17 1 49 1q153 0 153 -25
q0 -8 -17.5 -20.5t-33.5 -16.5q-4 -1 -22.5 -1t-47 -0.5t-51.5 -2.5q-4 0 -26 -2q2 -18 6.5 -54t6.5 -56q3 -23 -13 -23q-5 0 -16.5 6.5t-20.5 9.5q-5 1 -19 4t-17.5 6t-11 13t-9.5 28.5t-2 49.5v8q-21 -2 -48.5 -4t-41.5 -3t-15 -1q-11 0 -21.5 12.5t-10.5 23.5q0 19 28 25
z" />
    <glyph glyph-name="brokenbar" unicode="&#xa6;" horiz-adv-x="407" 
d="M143 638q0 73 9 136.5t27 63.5q19 0 42 -24t23 -57q0 -12 -1.5 -74t-1 -122.5t5.5 -118.5q1 -11 -4 -20.5t-11 -9.5q-13 0 -28 14.5t-29 41.5t-23 72t-9 98zM144 123q0 74 12 138.5t36 64.5q18 0 39.5 -24t21.5 -57q0 -54 3 -99q8 -150 36 -285q2 -12 -2 -21t-13 -9
q-7 0 -22.5 13.5t-29.5 17.5l-17.5 3.5t-17 4t-12 6t-12 12.5t-8.5 21q-14 46 -14 214z" />
    <glyph glyph-name="section" unicode="&#xa7;" horiz-adv-x="430" 
d="M346 135q0 -77 -69 -134t-155 -57q-11 0 -17.5 6.5t-16.5 6.5q-67 0 -67 22q0 4 2.5 7t9 5t12.5 4t17 4.5t20 5.5q138 42 138 126q0 24 -19 41.5t-46 30.5t-54 29t-46 45.5t-19 70.5q0 54 36.5 99.5t92.5 71.5q-69 42 -69 121q0 71 64 119.5t135 48.5q21 0 39 -24t18 -41
q0 -11 -28 -15q-52 -5 -86 -29t-34 -60q0 -14 5 -24t18 -19t23 -14t32 -14.5t34 -15.5q100 -48 100 -135q0 -51 -38.5 -96t-96.5 -71q65 -47 65 -115zM210 286l4 -1q45 20 79 51t34 70q0 19 -14.5 34.5t-28.5 22.5t-47 21q-52 -16 -83 -46t-31 -71q0 -47 87 -81z" />
    <glyph glyph-name="dieresis" unicode="&#xa8;" 
d="M284 637q0 16 46 47t69 31q7 0 10 -4.5t6 -16t5 -17.5q2 -4 11.5 -5t9.5 -9q0 -25 -25.5 -50.5t-51.5 -25.5q-24 0 -52 17.5t-28 32.5zM78 621q0 17 48 47.5t79 30.5q17 0 25 -18.5t8 -44.5q0 -25 -25.5 -50.5t-51.5 -25.5q-25 0 -54 21.5t-29 39.5z" />
    <glyph glyph-name="copyright" unicode="&#xa9;" horiz-adv-x="821" 
d="M49 314q0 173 62.5 289t122.5 116q12 0 21 -9q28 50 82 81.5t125 31.5q126 0 218 -99t92 -272q0 -124 -51 -241t-142 -193t-196 -76q-156 0 -245 103.5t-89 268.5zM148 341q0 -81 23 -142.5t61.5 -95t81 -49.5t88.5 -16q62 0 111 24.5t80 64t51.5 92t28.5 105.5t8 108
q0 160 -62.5 246t-158.5 86q-154 0 -160 -173q-1 -15 -10 -27.5t-25 -12.5q-34 0 -34 69v12q-83 -113 -83 -291zM544 522q0 -29 -17.5 -49.5t-35.5 -20.5q-26 0 -30 36q-6 37 -28 37q-43 0 -70 -40t-27 -90q0 -44 26 -73t83 -29q46 0 97 40q34 25 44 25q8 0 8 -9
q0 -7 -4.5 -20t-4.5 -26q0 -1 2.5 -7.5t2.5 -12.5q0 -27 -48 -67.5t-110 -40.5q-65 0 -113 48.5t-48 145.5q0 96 55 162t121 66q45 0 71 -22.5t26 -52.5z" />
    <glyph glyph-name="ordfeminine" unicode="&#xaa;" horiz-adv-x="442" 
d="M334 339q-26 24 -41 82q-3 10 -9 10q-5 0 -16 -17q-23 -32 -56.5 -53.5t-65.5 -21.5q-45 0 -73.5 29t-28.5 81q0 82 64.5 134.5t148.5 52.5q57 0 96.5 -13t39.5 -34q0 -20 -18 -20q-8 0 -28 5q10 -13 11 -26q14 -133 61 -180q9 -9 -8 -20q-28 -18 -53 -18q-14 0 -24 9z
M124 467q0 -46 46 -46q70 0 126 162q-15 3 -30 3q-62 0 -102 -34t-40 -85z" />
    <glyph glyph-name="guillemotleft" unicode="&#xab;" horiz-adv-x="684" 
d="M562 536q22 0 22 -15q0 -3 -0.5 -5t-2 -4t-2.5 -4t-4 -4.5t-5.5 -4.5t-7 -5t-8 -5.5t-9.5 -7t-11 -7.5q-68 -45 -105.5 -76.5t-37.5 -51.5q0 -23 64.5 -63t129.5 -63q24 -8 24 -18q0 -19 -33 -43.5t-54 -24.5q-29 0 -80 23.5t-96 68.5t-45 91q0 38 53 91.5t115.5 90.5
t92.5 37zM311 489q22 0 22 -15q0 -3 -0.5 -5t-2 -4t-2.5 -4t-4 -4.5t-5.5 -4.5t-7 -5t-8 -5.5t-9.5 -7t-11 -7.5q-116 -77 -116 -104q0 -25 40 -66.5t83 -66.5q24 -13 24 -24q0 -14 -29 -35t-47 -21q-38 0 -99.5 58t-61.5 126q0 50 94.5 122.5t139.5 72.5z" />
    <glyph glyph-name="logicalnot" unicode="&#xac;" 
d="M38 282q0 34 69.5 66.5t162 51t165.5 17.5q13 0 19 -6t6.5 -11.5t0.5 -18.5q1 -94 23 -236q6 -45 -16 -45q-24 0 -51 28t-32 54q-7 38 -8 114q-89 -11 -163.5 -35.5t-89.5 -24.5q-29 0 -59 27q-4 3 -9 5.5t-8.5 3.5t-6.5 3.5t-3 6.5z" />
    <glyph glyph-name="registered" unicode="&#xae;" horiz-adv-x="821" 
d="M49 314q0 173 62.5 289t122.5 116h1q29 45 88.5 74.5t138.5 29.5q126 0 218 -99t92 -272q0 -126 -46 -241.5t-135 -192t-198 -76.5q-160 0 -252 103.5t-92 268.5zM148 341q0 -81 25 -142.5t66.5 -95t87 -49.5t94.5 -16q57 0 103 24.5t74.5 64t48 92t27 105.5t7.5 108
q0 160 -62.5 246t-158.5 86q-67 0 -112 -27t-56 -80q-3 -16 -13.5 -28.5t-30.5 -12.5q-14 0 -22 8q-78 -111 -78 -283zM383 194q0 -29 -17 -29q-7 0 -22 13.5t-27 13.5q-4 0 -10 -0.5t-9 -0.5q-11 0 -16.5 8t-6.5 32q-2 46 4.5 160.5t17.5 188.5q-25 8 -25 19
q0 14 50.5 25.5t104.5 11.5q74 0 120 -36t46 -92q0 -41 -25.5 -78.5t-66.5 -57.5q44 -59 98 -91q26 -15 26 -22q0 -8 -25 -19q-12 -6 -21.5 -26t-22.5 -20q-31 -1 -75 47t-79 116q-22 3 -34 10q1 -55 8 -110.5t7 -62.5zM407 421q35 0 60 -15q38 26 38 68q0 45 -31 71t-89 26
h-15q-2 -64 -2 -156q15 6 39 6z" />
    <glyph glyph-name="macron" unicode="&#xaf;" 
d="M288 642q89 0 89 -26q0 -4 -2 -14t-2 -14q0 -3 3.5 -9.5t3.5 -11.5q0 -20 -19 -20q-3 0 -29.5 2t-47.5 1q-22 -1 -48 -3t-43.5 -4t-20.5 -2q-16 0 -34.5 19t-18.5 36q0 15 53 30.5t116 15.5z" />
    <glyph glyph-name="degree" unicode="&#xb0;" horiz-adv-x="403" 
d="M34 521q0 68 30 113.5t66 45.5h5q6 24 30.5 40.5t56.5 16.5q62 0 104.5 -49t42.5 -137q0 -81 -50 -143t-128 -62q-69 0 -113 53t-44 122zM135 558q0 -56 27.5 -91t62.5 -35q33 0 56.5 33.5t23.5 82.5q0 54 -23 83t-53 29q-15 0 -28.5 -19.5t-30.5 -19.5q-14 0 -25 9
q-10 -36 -10 -72z" />
    <glyph glyph-name="plusminus" unicode="&#xb1;" 
d="M38 381q0 24 46 48.5t117 43.5q9 92 30 161t42 69q12 0 12 -17q0 -7 -3.5 -76.5t-4.5 -118.5q97 17 158 16q25 0 25 -23q0 -17 -16.5 -35t-16.5 -22q0 -6 5.5 -14t5.5 -11q0 -12 -19 -13q-74 -4 -139 -18q3 -42 23 -164q6 -45 -16 -45q-24 0 -51 28t-32 54q-6 38 -8 102
q-56 -20 -73 -20q-20 0 -49 29q-3 3 -19.5 8t-16.5 18zM36 13q0 37 118 71t231 34q81 0 81 -28q0 -8 -15 -20t-15 -19q0 -5 2.5 -15t2.5 -21q0 -16 -25 -16q-6 0 -17 0.5t-16 0.5q-68 0 -123 -9.5t-88.5 -19.5t-49.5 -10q-24 0 -55 18.5t-31 33.5z" />
    <glyph glyph-name="twosuperior" unicode="&#xb2;" horiz-adv-x="433" 
d="M315 314q-4 0 -27 4t-62 8t-81 4q-61 -42 -112 -42q-36 0 -36 29q0 34 49 59.5t116 30.5q52 57 52 111q0 32 -19.5 50t-50.5 18q-33 0 -65.5 -17.5t-34.5 -17.5q-21 0 -21 20q0 21 32 41q62 40 130 40q54 0 87.5 -26.5t33.5 -77.5q0 -69 -71 -140q29 0 53 -7
q15 -5 26.5 -29.5t11.5 -43.5q0 -14 -11 -14z" />
    <glyph glyph-name="threesuperior" unicode="&#xb3;" horiz-adv-x="401" 
d="M100 246q-48 0 -74.5 18t-26.5 49q0 24 18 42t35 18q10 0 17 -6t7 -12q0 -5 -9 -14.5t-8 -17.5q0 -11 12 -18t31 -7q53 0 85 31.5t32 74.5q0 32 -16 50q-45 -17 -90 -17q-25 0 -39.5 10t-14.5 27t25.5 30.5t70.5 13.5q10 0 32 -2q20 18 20 44q0 36 -48 36
q-32 0 -59.5 -12t-32.5 -12q-24 0 -24 19q0 14 24 30q46 31 113 31q53 0 87.5 -21.5t34.5 -65.5q0 -41 -38 -74q53 -32 53 -85q0 -69 -67 -114.5t-150 -45.5z" />
    <glyph glyph-name="acute" unicode="&#xb4;" 
d="M214 524q-24 0 -24 38q0 47 38 113t77 66q23 0 44 -12t21 -29q0 -15 -62 -85q-4 -5 -12 -14.5t-12.5 -14.5t-11.5 -13.5t-11.5 -13.5t-10.5 -11t-10.5 -10t-9.5 -7.5t-9 -5t-7 -1.5z" />
    <glyph glyph-name="paragraph" unicode="&#xb6;" horiz-adv-x="630" 
d="M540 871q10 0 10 -15q0 -21 -8 -77q64 -21 97 -48q19 -16 32 -56t13 -65q0 -13 -6.5 -20.5t-16.5 -7.5q-6 0 -22 11.5t-47 31.5t-66 35q-16 -140 -16 -229q0 -160 16 -306l15 -146q0 -28 -16 -28q-7 0 -20 18.5t-23 18.5q-7 0 -14.5 9.5t-10.5 24.5q-16 111 -16 357
q0 140 29 302q-35 11 -76 18q-3 -17 -6 -45q-20 -161 -20 -358q0 -27 1 -52.5t5 -58t6 -50t9.5 -58t9.5 -50.5t12 -59.5t11 -55.5q2 -11 -3.5 -20.5t-11.5 -9.5q-7 0 -22.5 13.5t-29.5 17.5l-17.5 3.5t-17 4t-12 6t-12 12.5t-8.5 21q-27 87 -27 271q-109 30 -179.5 110.5
t-70.5 181.5q0 70 28 126t75 90t105 51.5t122 17.5q83 0 154 -17q24 80 45 80zM97 568q0 -72 46 -127t121 -81q13 230 60 347q-16 1 -48 1q-90 0 -134.5 -31.5t-44.5 -108.5z" />
    <glyph glyph-name="periodcentered" unicode="&#xb7;" horiz-adv-x="390" 
d="M122 384q0 24 57 58.5t95 34.5q12 0 14.5 -6.5t2.5 -19.5t3 -21q2 -3 7.5 -10t9 -13.5t3.5 -14.5q0 -23 -31 -52t-62 -29q-37 0 -68 23t-31 50z" />
    <glyph glyph-name="cedilla" unicode="&#xb8;" 
d="M368 -156q0 -63 -41.5 -97t-100.5 -34q-69 0 -110 48q-14 17 -14 29q0 11 11.5 20t11.5 17q0 13 11 13q2 0 28.5 -17.5t59.5 -17.5q68 0 68 50q0 39 -41 39q-10 0 -22.5 -3.5t-18.5 -3.5q-18 0 -18 19q0 21 32 80q15 28 34 28q20 0 20 -22q0 -4 -2.5 -10.5t-6.5 -18
t-7 -22.5q54 3 80 -25.5t26 -71.5z" />
    <glyph glyph-name="onesuperior" unicode="&#xb9;" horiz-adv-x="346" 
d="M164 298q-32 0 -63 -5t-38 -5q-12 0 -26 19.5t-14 37.5q0 9 28.5 21t67.5 18q0 53 8 128q-28 -27 -53 -25q-18 1 -34.5 19.5t-16.5 44.5q0 8 17 11q33 7 57 29q15 13 28 29.5t19.5 25t11.5 8.5q10 0 18.5 -14t8.5 -35q0 -11 -4 -53t-4 -49q-3 -69 -1 -115h2q30 0 51 -6.5
t21 -18.5q0 -5 -1.5 -15.5t-1.5 -15.5q0 -7 5 -15t5 -11q0 -10 -25 -10q-5 0 -26 1t-40 1z" />
    <glyph glyph-name="ordmasculine" unicode="&#xba;" horiz-adv-x="372" 
d="M385 500q-30 -23 -57 -32q-17 -56 -61 -95t-107 -39q-55 0 -94 35t-39 96q0 27 11 61t35 58q19 18 42 22q25 43 93 43q52 0 85 -29.5t41 -71.5q34 11 56 26q8 6 15 6q6 0 6 -6q0 -12 -12 -40q-1 -2 -1.5 -9t-3.5 -13.5t-9 -11.5zM160 579q0 -47 87 -47q8 0 26 2
q-6 36 -25.5 53.5t-45.5 17.5q-18 0 -30 -7.5t-12 -18.5zM97 486q0 -35 25 -57t60 -22q54 0 80 49h-20q-49 0 -85.5 22.5t-46.5 64.5q-13 -22 -13 -57z" />
    <glyph glyph-name="guillemotright" unicode="&#xbb;" horiz-adv-x="684" 
d="M363 157q-22 0 -22 15q0 3 0.5 5t2 4t2.5 4t4 4.5t5.5 4.5t7 5t8 5.5t9.5 7t11 7.5q116 77 116 104q0 25 -40 66.5t-83 66.5q-24 13 -24 24q0 14 29 35t47 21q38 0 99.5 -58t61.5 -126q0 -50 -94.5 -122.5t-139.5 -72.5zM112 110q-22 0 -22 15q0 3 0.5 5t2 4t2.5 4t4 4.5
t5.5 4.5t7 5t8 5.5t9.5 7t11 7.5q68 45 105.5 76.5t37.5 51.5q0 23 -64.5 63t-129.5 63q-24 8 -24 18q0 19 33 43.5t54 24.5q29 0 80 -23.5t96 -68.5t45 -91q0 -38 -53 -91.5t-115.5 -90.5t-92.5 -37z" />
    <glyph glyph-name="onequarter" unicode="&#xbc;" horiz-adv-x="802" 
d="M379 377q158 218 211 275q40 42 56 42q10 0 10 -7q0 -6 -7.5 -24.5t-8.5 -30.5q0 -5 0.5 -13t0.5 -12q0 -29 -25 -58q-94 -97 -216 -257q-49 -66 -93.5 -131t-79.5 -120t-39 -61q-1 -1 -3 -4q-25 -35 -35 -38l-5 -1q-16 0 -16 15q0 27 84 168.5t166 256.5zM164 298
q-32 0 -63 -5t-38 -5q-12 0 -26 19.5t-14 37.5q0 9 28.5 21t67.5 18q0 53 8 128q-28 -27 -53 -25q-18 1 -34.5 19.5t-16.5 44.5q0 8 17 11q33 7 57 29q15 13 28 29.5t19.5 25t11.5 8.5q10 0 18.5 -14t8.5 -35q0 -11 -4 -53t-4 -49q-3 -69 -1 -115h2q30 0 51 -6.5t21 -18.5
q0 -5 -1.5 -15.5t-1.5 -15.5q0 -7 5 -15t5 -11q0 -10 -25 -10q-5 0 -26 1t-40 1zM469 164q0 55 49.5 118t108 102t90.5 39q19 0 19 -18q0 -15 -24 -27q-73 -35 -121.5 -91t-48.5 -94q0 -26 47 -26q18 0 54 4q10 158 27 158q16 0 32.5 -13t16.5 -28q0 -6 -0.5 -16t-1 -29
t-0.5 -38q0 -3 -0.5 -8.5t-0.5 -7.5q18 5 52 17q19 7 19 -7q0 -8 -6.5 -27t-6.5 -25q0 -4 2 -8.5t2 -6.5q0 -9 -25 -20q-16 -8 -40 -14v-6q0 -17 2.5 -50.5t2.5 -43.5q0 -16 -11 -16q-6 0 -12.5 2.5t-15.5 6t-14 5.5q-7 3 -9 4t-6.5 3.5t-6 6.5t-2.5 11q-4 20 -3 62
q-27 -4 -58 -4q-46 0 -78.5 23t-32.5 62z" />
    <glyph glyph-name="onehalf" unicode="&#xbd;" horiz-adv-x="836" 
d="M379 377q158 218 211 275q40 42 56 42q10 0 10 -7q0 -6 -7.5 -24.5t-8.5 -30.5q0 -5 0.5 -13t0.5 -12q0 -29 -25 -58q-94 -97 -216 -257q-49 -66 -93.5 -131t-79.5 -120t-39 -61q-1 -1 -3 -4q-25 -35 -35 -38l-5 -1q-16 0 -16 15q0 27 84 168.5t166 256.5zM164 298
q-32 0 -63 -5t-38 -5q-12 0 -26 19.5t-14 37.5q0 9 28.5 21t67.5 18q0 53 8 128q-28 -27 -53 -25q-18 1 -34.5 19.5t-16.5 44.5q0 8 17 11q33 7 57 29q15 13 28 29.5t19.5 25t11.5 8.5q10 0 18.5 -14t8.5 -35q0 -11 -4 -53t-4 -49q-3 -69 -1 -115h2q30 0 51 -6.5t21 -18.5
q0 -5 -1.5 -15.5t-1.5 -15.5q0 -7 5 -15t5 -11q0 -10 -25 -10q-5 0 -26 1t-40 1zM807 59q-4 0 -27 4t-62 8t-81 4q-61 -42 -112 -42q-36 0 -36 29q0 34 49 59.5t116 30.5q52 57 52 111q0 32 -19.5 50t-50.5 18q-33 0 -65.5 -17.5t-34.5 -17.5q-21 0 -21 20q0 21 32 41
q62 40 130 40q54 0 87.5 -26.5t33.5 -77.5q0 -69 -71 -140q29 0 53 -7q15 -5 26.5 -29.5t11.5 -43.5q0 -14 -11 -14z" />
    <glyph glyph-name="threequarters" unicode="&#xbe;" horiz-adv-x="873" 
d="M449 377q158 218 211 275q40 42 56 42q10 0 10 -7q0 -6 -7.5 -24.5t-8.5 -30.5q0 -5 0.5 -13t0.5 -12q0 -29 -25 -58q-94 -97 -216 -257q-49 -66 -93.5 -131t-79.5 -120t-39 -61q-1 -1 -3 -4q-25 -35 -35 -38l-5 -1q-16 0 -16 15q0 27 84 168.5t166 256.5zM100 246
q-48 0 -74.5 18t-26.5 49q0 24 18 42t35 18q10 0 17 -6t7 -12q0 -5 -9 -14.5t-8 -17.5q0 -11 12 -18t31 -7q53 0 85 31.5t32 74.5q0 32 -16 50q-45 -17 -90 -17q-25 0 -39.5 10t-14.5 27t25.5 30.5t70.5 13.5q10 0 32 -2q20 18 20 44q0 36 -48 36q-32 0 -59.5 -12t-32.5 -12
q-24 0 -24 19q0 14 24 30q46 31 113 31q53 0 87.5 -21.5t34.5 -65.5q0 -41 -38 -74q53 -32 53 -85q0 -69 -67 -114.5t-150 -45.5zM540 164q0 55 49.5 118t108 102t90.5 39q19 0 19 -18q0 -15 -24 -27q-73 -35 -121.5 -91t-48.5 -94q0 -26 47 -26q18 0 54 4q10 158 27 158
q16 0 32.5 -13t16.5 -28q0 -6 -0.5 -16t-1 -29t-0.5 -38q0 -3 -0.5 -8.5t-0.5 -7.5q18 5 52 17q19 7 19 -7q0 -8 -6.5 -27t-6.5 -25q0 -4 2 -8.5t2 -6.5q0 -9 -25 -20q-16 -8 -40 -14v-6q0 -17 2.5 -50.5t2.5 -43.5q0 -16 -11 -16q-6 0 -12.5 2.5t-15.5 6t-14 5.5q-7 3 -9 4
t-6.5 3.5t-6 6.5t-2.5 11q-4 20 -3 62q-27 -4 -58 -4q-46 0 -78.5 23t-32.5 62z" />
    <glyph glyph-name="questiondown" unicode="&#xbf;" horiz-adv-x="577" 
d="M461 446q0 -24 -57 -58.5t-95 -34.5q-12 0 -14.5 6.5t-2.5 19.5t-3 21q-2 3 -7.5 10t-9 13.5t-3.5 14.5q0 23 31 52t62 29q37 0 68 -23t31 -50zM-29 -157q0 57 36.5 107.5t89 84.5t105 62t89 52t36.5 42q0 14 -23 26.5t-23 16.5q0 12 14.5 22t32.5 10q38 0 57.5 -15
t19.5 -36q0 -33 -31 -64.5t-76 -58.5t-89.5 -55t-75.5 -64t-31 -75q0 -53 46.5 -88t119.5 -35q48 0 90 14.5t67.5 29.5t34.5 15q17 0 17 -15q0 -32 -50 -70q-91 -67 -224 -67q-103 0 -167.5 41.5t-64.5 119.5z" />
    <glyph glyph-name="Aacute" unicode="&#xc1;" horiz-adv-x="680" 
d="M365 1001q-24 0 -24 38q0 47 38 113t77 66q23 0 44 -12t21 -29q0 -15 -62 -85q-4 -5 -12 -14.5t-12.5 -14.5t-11.5 -13.5t-11.5 -13.5t-10.5 -11t-10.5 -10t-9.5 -7.5t-9 -5t-7 -1.5zM705 -162q0 -16 -21 -16q-7 0 -15.5 2t-21.5 6t-24 6q-3 1 -13.5 3t-15 3t-12 4
t-11.5 6t-7 8q-50 87 -87 285q-126 -9 -239 35q-73 -139 -115 -189q-17 -19 -31 -19q-26 0 -55 17q-30 18 -30 32q0 13 20 26q97 66 204.5 257t182.5 402q-29 142 -91 142q-24 0 -64.5 -28t-47.5 -28q-14 0 -16 35q-1 9 -6 24.5t-5 22.5q0 21 34 42.5t84 21.5
q150 0 190 -171q29 -123 72 -489q0 -4 2 -12t2 -12q56 7 78 7q36 0 25 -25q-3 -7 -16.5 -17t-18.5 -17q-4 -5 -8.5 -15t-10.5 -15.5t-19 -8.5q-3 -1 -11 -3q28 -124 58 -192q12 -27 28.5 -57.5t24 -46.5t7.5 -26zM291 284l-12.5 -25t-13.5 -26q79 -5 196 8q-21 153 -28 307
q-1 14 -4 19.5t-8.5 1t-11.5 -19.5q-45 -113 -118 -265z" />
    <glyph glyph-name="Acircumflex" unicode="&#xc2;" horiz-adv-x="680" 
d="M257 1020q0 44 63 121t109 77q53 0 97 -44.5t44 -77.5q0 -24 -20 -31q-10 -4 -24.5 -28t-20.5 -24q-5 0 -17 23q-20 43 -44.5 69.5t-41.5 26.5q-29 0 -86 -85q-3 -5 -8 -12t-7 -10.5t-5.5 -8t-5.5 -6.5t-4.5 -5t-4.5 -4t-4.5 -1.5t-5.5 -0.5q-14 0 -14 21zM705 -162
q0 -16 -21 -16q-7 0 -15.5 2t-21.5 6t-24 6q-3 1 -13.5 3t-15 3t-12 4t-11.5 6t-7 8q-50 87 -87 285q-126 -9 -239 35q-73 -139 -115 -189q-17 -19 -31 -19q-26 0 -55 17q-30 18 -30 32q0 13 20 26q97 66 204.5 257t182.5 402q-29 142 -91 142q-24 0 -64.5 -28t-47.5 -28
q-14 0 -16 35q-1 9 -6 24.5t-5 22.5q0 21 34 42.5t84 21.5q150 0 190 -171q29 -123 72 -489q0 -4 2 -12t2 -12q56 7 78 7q36 0 25 -25q-3 -7 -16.5 -17t-18.5 -17q-4 -5 -8.5 -15t-10.5 -15.5t-19 -8.5q-3 -1 -11 -3q28 -124 58 -192q12 -27 28.5 -57.5t24 -46.5t7.5 -26z
M291 284l-12.5 -25t-13.5 -26q79 -5 196 8q-21 153 -28 307q-1 14 -4 19.5t-8.5 1t-11.5 -19.5q-45 -113 -118 -265z" />
    <glyph glyph-name="Atilde" unicode="&#xc3;" horiz-adv-x="680" 
d="M583 1221q20 0 20 -25q0 -22 -10 -53t-38.5 -61t-67.5 -30q-27 0 -69.5 17.5t-62.5 17.5q-23 0 -39 -13t-22 -28.5t-14 -28.5t-17 -13q-22 0 -22 26q0 54 33 104.5t92 50.5q27 0 72.5 -17.5t64.5 -17.5q20 0 34.5 18t25 35.5t20.5 17.5zM705 -162q0 -16 -21 -16
q-7 0 -15.5 2t-21.5 6t-24 6q-3 1 -13.5 3t-15 3t-12 4t-11.5 6t-7 8q-50 87 -87 285q-126 -9 -239 35q-73 -139 -115 -189q-17 -19 -31 -19q-26 0 -55 17q-30 18 -30 32q0 13 20 26q97 66 204.5 257t182.5 402q-29 142 -91 142q-24 0 -64.5 -28t-47.5 -28q-14 0 -16 35
q-1 9 -6 24.5t-5 22.5q0 21 34 42.5t84 21.5q150 0 190 -171q29 -123 72 -489q0 -4 2 -12t2 -12q56 7 78 7q36 0 25 -25q-3 -7 -16.5 -17t-18.5 -17q-4 -5 -8.5 -15t-10.5 -15.5t-19 -8.5q-3 -1 -11 -3q28 -124 58 -192q12 -27 28.5 -57.5t24 -46.5t7.5 -26zM291 284
l-12.5 -25t-13.5 -26q79 -5 196 8q-21 153 -28 307q-1 14 -4 19.5t-8.5 1t-11.5 -19.5q-45 -113 -118 -265z" />
    <glyph glyph-name="Adieresis" unicode="&#xc4;" horiz-adv-x="680" 
d="M435 1114q0 16 46 47t69 31q7 0 10 -4.5t6 -16t5 -17.5q2 -4 11.5 -5t9.5 -9q0 -25 -25.5 -50.5t-51.5 -25.5q-24 0 -52 17.5t-28 32.5zM229 1098q0 17 48 47.5t79 30.5q17 0 25 -18.5t8 -44.5q0 -25 -25.5 -50.5t-51.5 -25.5q-25 0 -54 21.5t-29 39.5zM705 -162
q0 -16 -21 -16q-7 0 -15.5 2t-21.5 6t-24 6q-3 1 -13.5 3t-15 3t-12 4t-11.5 6t-7 8q-50 87 -87 285q-126 -9 -239 35q-73 -139 -115 -189q-17 -19 -31 -19q-26 0 -55 17q-30 18 -30 32q0 13 20 26q97 66 204.5 257t182.5 402q-29 142 -91 142q-24 0 -64.5 -28t-47.5 -28
q-14 0 -16 35q-1 9 -6 24.5t-5 22.5q0 21 34 42.5t84 21.5q150 0 190 -171q29 -123 72 -489q0 -4 2 -12t2 -12q56 7 78 7q36 0 25 -25q-3 -7 -16.5 -17t-18.5 -17q-4 -5 -8.5 -15t-10.5 -15.5t-19 -8.5q-3 -1 -11 -3q28 -124 58 -192q12 -27 28.5 -57.5t24 -46.5t7.5 -26z
M291 284l-12.5 -25t-13.5 -26q79 -5 196 8q-21 153 -28 307q-1 14 -4 19.5t-8.5 1t-11.5 -19.5q-45 -113 -118 -265z" />
    <glyph glyph-name="Aring" unicode="&#xc5;" horiz-adv-x="680" 
d="M288 1123q0 73 42.5 115.5t97.5 42.5q49 0 83 -33.5t34 -94.5q0 -65 -39.5 -114.5t-101.5 -49.5q-51 0 -83.5 41t-32.5 93zM433 1227q-24 0 -41.5 -19.5t-17.5 -52.5q0 -41 17.5 -65.5t43.5 -24.5q24 0 41 24.5t17 60.5q0 38 -18 57.5t-42 19.5zM705 -162q0 -16 -21 -16
q-7 0 -15.5 2t-21.5 6t-24 6q-3 1 -13.5 3t-15 3t-12 4t-11.5 6t-7 8q-50 87 -87 285q-126 -9 -239 35q-73 -139 -115 -189q-17 -19 -31 -19q-26 0 -55 17q-30 18 -30 32q0 13 20 26q97 66 204.5 257t182.5 402q-29 142 -91 142q-24 0 -64.5 -28t-47.5 -28q-14 0 -16 35
q-1 9 -6 24.5t-5 22.5q0 21 34 42.5t84 21.5q150 0 190 -171q29 -123 72 -489q0 -4 2 -12t2 -12q56 7 78 7q36 0 25 -25q-3 -7 -16.5 -17t-18.5 -17q-4 -5 -8.5 -15t-10.5 -15.5t-19 -8.5q-3 -1 -11 -3q28 -124 58 -192q12 -27 28.5 -57.5t24 -46.5t7.5 -26zM291 284
l-12.5 -25t-13.5 -26q79 -5 196 8q-21 153 -28 307q-1 14 -4 19.5t-8.5 1t-11.5 -19.5q-45 -113 -118 -265z" />
    <glyph glyph-name="AE" unicode="&#xc6;" horiz-adv-x="1063" 
d="M601 412q0 -38 2 -96q176 25 310 84q13 6 24 6q17 0 17 -15q0 -9 -6 -16.5t-16 -16.5t-15 -16q-4 -5 -9 -14.5t-10.5 -15.5t-18.5 -13q-91 -57 -268 -73q16 -129 64.5 -175t143.5 -46q57 0 115 16.5t96 32.5t45 16q9 0 9 -10q0 -6 -7.5 -24.5t-7.5 -25.5q3 -23 0 -33
q-11 -40 -99.5 -71t-178.5 -31q-137 0 -210 78t-82 269q-97 3 -167 24q-79 -111 -162 -196q-23 -25 -44 -25q-26 0 -55 17q-30 17 -30 34q0 13 20 24q128 74 251.5 239t195.5 340q-45 -11 -70 -24q-7 -4 -20.5 -12t-22 -12t-14.5 -4q-12 0 -21 7.5t-9 21.5q0 36 43 64
q156 99 434 99q47 0 83.5 -6t54.5 -14.5t18 -18.5q0 -9 -5 -13.5t-18.5 -11t-22.5 -13.5q-5 -4 -10.5 -15.5t-14 -18.5t-24.5 -7q-6 0 -39 2.5t-62 2.5q-93 0 -172 -9q-15 -127 -15 -285zM416 302q42 0 82 3q1 141 21 271q-66 -146 -149 -273q15 -1 46 -1z" />
    <glyph glyph-name="Ccedilla" unicode="&#xc7;" horiz-adv-x="702" 
d="M556 -206q0 -63 -41.5 -97t-100.5 -34q-69 0 -110 48q-14 17 -14 29q0 11 11.5 20t11.5 17q0 13 11 13q2 0 28.5 -17.5t59.5 -17.5q68 0 68 50q0 39 -41 39q-10 0 -22.5 -3.5t-18.5 -3.5q-18 0 -18 19q0 17 29 75q-51 5 -98.5 20.5t-95 45t-82.5 71t-57 103.5t-22 137
q0 82 29.5 165t81.5 150.5t131.5 110t171.5 42.5q102 0 171 -40t69 -81q0 -9 -4.5 -15t-9.5 -7.5t-14 -3t-11 -2.5q-18 -6 -30 -18.5t-22 -12.5q-9 0 -26 16q-92 85 -180 85q-44 0 -84.5 -18.5t-76 -56.5t-56.5 -105.5t-21 -156.5q0 -103 48 -176.5t119 -106t154 -32.5
q54 0 99.5 9t52.5 9q16 0 16 -10q0 -4 -4 -9t-10 -10.5t-8 -8.5q-4 -6 -5.5 -25t-9.5 -24q-20 -15 -66.5 -31.5t-95.5 -16.5q-9 -19 -13 -37q54 3 80 -25.5t26 -71.5z" />
    <glyph glyph-name="Egrave" unicode="&#xc8;" horiz-adv-x="753" 
d="M416 1039q25 -29 40.5 -69.5t15.5 -70.5q0 -38 -19 -38q-31 0 -105 88q-56 63 -56 88q0 7 5 9.5t14 4.5t14 6q3 2 9 8.5t11.5 9.5t11.5 3q26 0 59 -39zM247 412v-5q108 54 216 54q28 0 37.5 -9t9.5 -26q0 -24 -11.5 -48.5t-25.5 -27.5q-140 -23 -223 -61q8 -135 37 -209
t75 -99.5t123 -25.5q56 0 129.5 23.5t128.5 56.5q16 10 22 10t6 -8q0 -5 -6 -22t-6 -27q0 -4 1 -11.5t1 -10.5q0 -34 -53.5 -67.5t-124 -53.5t-126.5 -20q-76 0 -131.5 21.5t-97.5 72t-63 139.5t-21 217q0 212 32 363q-41 -18 -76 -37q-7 -4 -20.5 -12t-22 -12t-14.5 -4
q-12 0 -21 7.5t-9 21.5q0 31 28 59q61 62 204 114t305 52q46 0 83 -6t55 -13.5t18 -14.5q0 -6 -7.5 -10.5t-21 -12.5t-23.5 -18q-6 -6 -11 -18t-11.5 -18.5t-20.5 -6.5q-6 0 -39 2.5t-62 2.5q-121 0 -249 -44q-14 -122 -14 -258z" />
    <glyph glyph-name="Eacute" unicode="&#xc9;" horiz-adv-x="753" 
d="M366 861q-24 0 -24 38q0 47 38 113t77 66q23 0 44 -12t21 -29q0 -15 -62 -85q-4 -5 -12 -14.5t-12.5 -14.5t-11.5 -13.5t-11.5 -13.5t-10.5 -11t-10.5 -10t-9.5 -7.5t-9 -5t-7 -1.5zM247 412v-5q108 54 216 54q28 0 37.5 -9t9.5 -26q0 -24 -11.5 -48.5t-25.5 -27.5
q-140 -23 -223 -61q8 -135 37 -209t75 -99.5t123 -25.5q56 0 129.5 23.5t128.5 56.5q16 10 22 10t6 -8q0 -5 -6 -22t-6 -27q0 -4 1 -11.5t1 -10.5q0 -34 -53.5 -67.5t-124 -53.5t-126.5 -20q-76 0 -131.5 21.5t-97.5 72t-63 139.5t-21 217q0 212 32 363q-41 -18 -76 -37
q-7 -4 -20.5 -12t-22 -12t-14.5 -4q-12 0 -21 7.5t-9 21.5q0 31 28 59q61 62 204 114t305 52q46 0 83 -6t55 -13.5t18 -14.5q0 -6 -7.5 -10.5t-21 -12.5t-23.5 -18q-6 -6 -11 -18t-11.5 -18.5t-20.5 -6.5q-6 0 -39 2.5t-62 2.5q-121 0 -249 -44q-14 -122 -14 -258z" />
    <glyph glyph-name="Ecircumflex" unicode="&#xca;" horiz-adv-x="753" 
d="M258 880q0 44 63 121t109 77q53 0 97 -44.5t44 -77.5q0 -24 -20 -31q-10 -4 -24.5 -28t-20.5 -24t-17 23q-20 43 -44.5 69.5t-41.5 26.5q-29 0 -86 -85q-3 -5 -8 -12t-7 -10.5t-5.5 -8t-5.5 -6.5t-4.5 -5t-4.5 -4t-4.5 -1.5t-5.5 -0.5q-14 0 -14 21zM247 412v-5
q108 54 216 54q28 0 37.5 -9t9.5 -26q0 -24 -11.5 -48.5t-25.5 -27.5q-140 -23 -223 -61q8 -135 37 -209t75 -99.5t123 -25.5q56 0 129.5 23.5t128.5 56.5q16 10 22 10t6 -8q0 -5 -6 -22t-6 -27q0 -4 1 -11.5t1 -10.5q0 -34 -53.5 -67.5t-124 -53.5t-126.5 -20
q-76 0 -131.5 21.5t-97.5 72t-63 139.5t-21 217q0 212 32 363q-41 -18 -76 -37q-7 -4 -20.5 -12t-22 -12t-14.5 -4q-12 0 -21 7.5t-9 21.5q0 31 28 59q61 62 204 114t305 52q46 0 83 -6t55 -13.5t18 -14.5q0 -6 -7.5 -10.5t-21 -12.5t-23.5 -18q-6 -6 -11 -18t-11.5 -18.5
t-20.5 -6.5q-6 0 -39 2.5t-62 2.5q-121 0 -249 -44q-14 -122 -14 -258z" />
    <glyph glyph-name="Edieresis" unicode="&#xcb;" horiz-adv-x="753" 
d="M436 974q0 16 46 47t69 31q7 0 10 -4.5t6 -16t5 -17.5q2 -4 11.5 -5t9.5 -9q0 -25 -25.5 -50.5t-51.5 -25.5q-24 0 -52 17.5t-28 32.5zM230 958q0 17 48 47.5t79 30.5q17 0 25 -18.5t8 -44.5q0 -25 -25.5 -50.5t-51.5 -25.5q-25 0 -54 21.5t-29 39.5zM247 412v-5
q108 54 216 54q28 0 37.5 -9t9.5 -26q0 -24 -11.5 -48.5t-25.5 -27.5q-140 -23 -223 -61q8 -135 37 -209t75 -99.5t123 -25.5q56 0 129.5 23.5t128.5 56.5q16 10 22 10t6 -8q0 -5 -6 -22t-6 -27q0 -4 1 -11.5t1 -10.5q0 -34 -53.5 -67.5t-124 -53.5t-126.5 -20
q-76 0 -131.5 21.5t-97.5 72t-63 139.5t-21 217q0 212 32 363q-41 -18 -76 -37q-7 -4 -20.5 -12t-22 -12t-14.5 -4q-12 0 -21 7.5t-9 21.5q0 31 28 59q61 62 204 114t305 52q46 0 83 -6t55 -13.5t18 -14.5q0 -6 -7.5 -10.5t-21 -12.5t-23.5 -18q-6 -6 -11 -18t-11.5 -18.5
t-20.5 -6.5q-6 0 -39 2.5t-62 2.5q-121 0 -249 -44q-14 -122 -14 -258z" />
    <glyph glyph-name="Igrave" unicode="&#xcc;" horiz-adv-x="277" 
d="M155 1002q25 -29 40.5 -69.5t15.5 -70.5q0 -38 -19 -38q-31 0 -105 88q-56 63 -56 88q0 7 5 9.5t14 4.5t14 6q3 2 9 8.5t11.5 9.5t11.5 3q26 0 59 -39zM75 275q0 479 62 479q15 0 34 -24t19 -57q0 -30 -2.5 -94t-2.5 -81q0 -317 46 -546q2 -12 -2 -21t-13 -9
q-7 0 -22.5 13.5t-29.5 17.5l-17.5 3.5t-17 4t-12 6t-12 12.5t-8.5 21q-22 71 -22 275z" />
    <glyph glyph-name="Iacute" unicode="&#xcd;" horiz-adv-x="277" 
d="M105 824q-24 0 -24 38q0 47 38 113t77 66q23 0 44 -12t21 -29q0 -15 -62 -85q-4 -5 -12 -14.5t-12.5 -14.5t-11.5 -13.5t-11.5 -13.5t-10.5 -11t-10.5 -10t-9.5 -7.5t-9 -5t-7 -1.5zM75 275q0 479 62 479q15 0 34 -24t19 -57q0 -30 -2.5 -94t-2.5 -81q0 -317 46 -546
q2 -12 -2 -21t-13 -9q-7 0 -22.5 13.5t-29.5 17.5l-17.5 3.5t-17 4t-12 6t-12 12.5t-8.5 21q-22 71 -22 275z" />
    <glyph glyph-name="Icircumflex" unicode="&#xce;" horiz-adv-x="277" 
d="M-3 843q0 44 63 121t109 77q53 0 97 -44.5t44 -77.5q0 -24 -20 -31q-10 -4 -24.5 -28t-20.5 -24q-5 0 -17 23q-20 43 -44.5 69.5t-41.5 26.5q-29 0 -86 -85q-3 -5 -8 -12t-7 -10.5t-5.5 -8t-5.5 -6.5t-4.5 -5t-4.5 -4t-4.5 -1.5t-5.5 -0.5q-14 0 -14 21zM75 275
q0 479 62 479q15 0 34 -24t19 -57q0 -30 -2.5 -94t-2.5 -81q0 -317 46 -546q2 -12 -2 -21t-13 -9q-7 0 -22.5 13.5t-29.5 17.5l-17.5 3.5t-17 4t-12 6t-12 12.5t-8.5 21q-22 71 -22 275z" />
    <glyph glyph-name="Idieresis" unicode="&#xcf;" horiz-adv-x="277" 
d="M175 937q0 16 46 47t69 31q7 0 10 -4.5t6 -16t5 -17.5q2 -4 11.5 -5t9.5 -9q0 -25 -25.5 -50.5t-51.5 -25.5q-24 0 -52 17.5t-28 32.5zM-31 921q0 17 48 47.5t79 30.5q17 0 25 -18.5t8 -44.5q0 -25 -25.5 -50.5t-51.5 -25.5q-25 0 -54 21.5t-29 39.5zM75 275
q0 479 62 479q15 0 34 -24t19 -57q0 -30 -2.5 -94t-2.5 -81q0 -317 46 -546q2 -12 -2 -21t-13 -9q-7 0 -22.5 13.5t-29.5 17.5l-17.5 3.5t-17 4t-12 6t-12 12.5t-8.5 21q-22 71 -22 275z" />
    <glyph glyph-name="Eth" unicode="&#xd0;" horiz-adv-x="738" 
d="M240 -19q-28 -4 -61.5 -19t-39.5 -16q-22 -3 -24 20q-1 10 8.5 38t26 78t26.5 99q9 48 24 134q-18 -3 -27 -3q-16 0 -34.5 19t-18.5 36q0 10 27.5 21.5t68.5 18.5q18 104 29 152q25 118 28 131q-125 -23 -157 -165q-8 -38 -21 -38q-6 0 -9.5 10.5l-9.5 28.5t-16 31
q-7 8 -17 13.5t-14 10t-4 15.5q0 61 86.5 126.5t202.5 69.5q10 16 16 25q37 55 63 59q16 3 19 -10q0 -3 -1 -7t-3.5 -7.5t-7 -11t-8.5 -15.5q-6 -11 -16 -35q166 -14 262 -113t96 -240q0 -144 -73 -243t-189 -154q-92 -42 -232 -59zM221 111q0 -15 21 -15q2 0 4.5 0.5t7.5 1
t11 0.5q9 1 32.5 1.5t47.5 2t45 4.5q59 9 103 32.5t67.5 52t37.5 68t17.5 70.5t3.5 69q0 126 -77.5 205t-189.5 89q-4 -26 -14 -102.5t-18 -130.5q-2 -19 -8 -47q66 -2 66 -25q0 -5 -2 -14t-2 -14q0 -3 3.5 -9t3.5 -12q0 -19 -19 -19q-4 0 -29 1t-41 1q-14 -57 -32 -106
t-28.5 -73t-10.5 -31z" />
    <glyph glyph-name="Ntilde" unicode="&#xd1;" horiz-adv-x="676" 
d="M631 966q20 0 20 -25q0 -22 -10 -53t-38.5 -61t-67.5 -30q-27 0 -69.5 17.5t-62.5 17.5q-23 0 -39 -13t-22 -28.5t-14 -28.5t-17 -13q-22 0 -22 26q0 54 33 104.5t92 50.5q27 0 72.5 -17.5t64.5 -17.5q16 0 28.5 11t19.5 24.5t15.5 24.5t16.5 11zM124 151q20 62 36 130.5
t31.5 144.5t21.5 101q24 112 69 112q38 0 65 -48q86 -151 149 -424q6 -24 12 -24t11 31q16 97 27.5 160t31.5 153.5t40 149t50.5 125t64 104.5t79.5 63.5t100 25.5q71 0 112 -29t41 -74q0 -40 -27 -67.5t-57 -27.5q-33 0 -33 18q0 7 12.5 24t12.5 27q0 16 -18 26.5t-55 10.5
q-42 0 -76 -17t-62 -54.5t-50.5 -85t-43 -120.5t-37 -148.5t-35.5 -180.5q-16 -88 -39 -285q-4 -38 -31 -38q-22 0 -42 25q-22 27 -49.5 95.5t-67.5 176t-76 186.5q-15 35 -25 35t-15 -45q-16 -129 -78 -384q-67 -280 -102 -280q-16 0 -18 23q-4 33 -12 41q-6 6 -16.5 12
t-15 11.5t-4.5 18.5q0 15 14 41.5t44.5 95.5t60.5 165z" />
    <glyph glyph-name="Ograve" unicode="&#xd2;" horiz-adv-x="751" 
d="M429 1041q25 -29 40.5 -69.5t15.5 -70.5q0 -38 -19 -38q-31 0 -105 88q-56 63 -56 88q0 7 5 9.5t14 4.5t14 6q3 2 9 8.5t11.5 9.5t11.5 3q26 0 59 -39zM49 314q0 173 62.5 289t122.5 116q4 0 10 -2q19 46 66 76t112 30q114 0 197 -99t83 -272q0 -126 -42.5 -241.5
t-124 -192t-182.5 -76.5q-142 0 -223 103.5t-81 268.5zM178 341q0 -81 18.5 -142.5t49 -95t64.5 -49.5t71 -16q60 0 105 36t69 96.5t35 125.5t11 136q0 160 -51 246t-130 86q-112 0 -117 -127q-1 -15 -10 -27.5t-25 -12.5q-28 0 -32 37q-58 -92 -58 -293z" />
    <glyph glyph-name="Oacute" unicode="&#xd3;" horiz-adv-x="751" 
d="M379 863q-24 0 -24 38q0 47 38 113t77 66q23 0 44 -12t21 -29q0 -15 -62 -85q-4 -5 -12 -14.5t-12.5 -14.5t-11.5 -13.5t-11.5 -13.5t-10.5 -11t-10.5 -10t-9.5 -7.5t-9 -5t-7 -1.5zM49 314q0 173 62.5 289t122.5 116q4 0 10 -2q19 46 66 76t112 30q114 0 197 -99
t83 -272q0 -126 -42.5 -241.5t-124 -192t-182.5 -76.5q-142 0 -223 103.5t-81 268.5zM178 341q0 -81 18.5 -142.5t49 -95t64.5 -49.5t71 -16q60 0 105 36t69 96.5t35 125.5t11 136q0 160 -51 246t-130 86q-112 0 -117 -127q-1 -15 -10 -27.5t-25 -12.5q-28 0 -32 37
q-58 -92 -58 -293z" />
    <glyph glyph-name="Ocircumflex" unicode="&#xd4;" horiz-adv-x="751" 
d="M271 882q0 44 63 121t109 77q53 0 97 -44.5t44 -77.5q0 -24 -20 -31q-10 -4 -24.5 -28t-20.5 -24q-5 0 -17 23q-20 43 -44.5 69.5t-41.5 26.5q-29 0 -86 -85q-3 -5 -8 -12t-7 -10.5t-5.5 -8t-5.5 -6.5t-4.5 -5t-4.5 -4t-4.5 -1.5t-5.5 -0.5q-14 0 -14 21zM49 314
q0 173 62.5 289t122.5 116q4 0 10 -2q19 46 66 76t112 30q114 0 197 -99t83 -272q0 -126 -42.5 -241.5t-124 -192t-182.5 -76.5q-142 0 -223 103.5t-81 268.5zM178 341q0 -81 18.5 -142.5t49 -95t64.5 -49.5t71 -16q60 0 105 36t69 96.5t35 125.5t11 136q0 160 -51 246
t-130 86q-112 0 -117 -127q-1 -15 -10 -27.5t-25 -12.5q-28 0 -32 37q-58 -92 -58 -293z" />
    <glyph glyph-name="Otilde" unicode="&#xd5;" horiz-adv-x="751" 
d="M597 1083q20 0 20 -25q0 -22 -10 -53t-38.5 -61t-67.5 -30q-27 0 -69.5 17.5t-62.5 17.5q-23 0 -39 -13t-22 -28.5t-14 -28.5t-17 -13q-22 0 -22 26q0 54 33 104.5t92 50.5q27 0 72.5 -17.5t64.5 -17.5q20 0 34.5 18t25 35.5t20.5 17.5zM49 314q0 173 62.5 289t122.5 116
q4 0 10 -2q19 46 66 76t112 30q114 0 197 -99t83 -272q0 -126 -42.5 -241.5t-124 -192t-182.5 -76.5q-142 0 -223 103.5t-81 268.5zM178 341q0 -81 18.5 -142.5t49 -95t64.5 -49.5t71 -16q60 0 105 36t69 96.5t35 125.5t11 136q0 160 -51 246t-130 86q-112 0 -117 -127
q-1 -15 -10 -27.5t-25 -12.5q-28 0 -32 37q-58 -92 -58 -293z" />
    <glyph glyph-name="Odieresis" unicode="&#xd6;" horiz-adv-x="751" 
d="M449 976q0 16 46 47t69 31q7 0 10 -4.5t6 -16t5 -17.5q2 -4 11.5 -5t9.5 -9q0 -25 -25.5 -50.5t-51.5 -25.5q-24 0 -52 17.5t-28 32.5zM243 960q0 17 48 47.5t79 30.5q17 0 25 -18.5t8 -44.5q0 -25 -25.5 -50.5t-51.5 -25.5q-25 0 -54 21.5t-29 39.5zM49 314
q0 173 62.5 289t122.5 116q4 0 10 -2q19 46 66 76t112 30q114 0 197 -99t83 -272q0 -126 -42.5 -241.5t-124 -192t-182.5 -76.5q-142 0 -223 103.5t-81 268.5zM178 341q0 -81 18.5 -142.5t49 -95t64.5 -49.5t71 -16q60 0 105 36t69 96.5t35 125.5t11 136q0 160 -51 246
t-130 86q-112 0 -117 -127q-1 -15 -10 -27.5t-25 -12.5q-28 0 -32 37q-58 -92 -58 -293z" />
    <glyph glyph-name="multiply" unicode="&#xd7;" 
d="M398 117q-29 0 -62 20q-8 5 -15 12t-14 19t-11 20.5t-12.5 27t-13.5 28.5q-49 -47 -78 -67q-21 -15 -61 -15q-23 0 -41.5 7.5t-18.5 19.5q0 13 25 32q3 2 20 13.5t30.5 21.5t36.5 28t45 37q-30 50 -74 98q-19 21 -19 27q0 7 12 10t17 8q4 5 7 23.5t8.5 33t17.5 14.5
q10 0 30 -20q40 -39 88 -112q34 35 80.5 86.5t52.5 57.5q7 7 13 7q3 0 7 -5t4 -11q0 -26 -34.5 -86t-81.5 -117q69 -122 69 -183q0 -35 -27 -35z" />
    <glyph glyph-name="Oslash" unicode="&#xd8;" horiz-adv-x="751" 
d="M49 314q0 173 62.5 289t122.5 116q4 0 10 -2q19 46 66 76t112 30q97 0 170 -70q50 56 94 91q8 6 16 6q18 0 18 -14q0 -5 -5.5 -20.5t-5.5 -25.5t4 -28t4 -27q0 -28 -23 -51q-21 -21 -31 -32q39 -88 39 -200q0 -126 -42.5 -241.5t-124 -192t-182.5 -76.5q-102 0 -175 56
q-11 -19 -16 -27q-29 -42 -45 -42q-22 0 -22 19q0 26 33 100q-79 102 -79 266zM178 341q0 -84 21 -149q72 136 141 237q102 150 200 265q-48 70 -120 70q-112 0 -117 -127q-1 -15 -10 -27.5t-25 -12.5q-28 0 -32 37q-58 -92 -58 -293zM381 312q-75 -102 -137 -206
q54 -68 137 -68q60 0 105 36t69 96.5t35 125.5t11 136q0 75 -13 140q-96 -107 -207 -260z" />
    <glyph glyph-name="Ugrave" unicode="&#xd9;" horiz-adv-x="716" 
d="M437 1002q25 -29 40.5 -69.5t15.5 -70.5q0 -38 -19 -38q-31 0 -105 88q-56 63 -56 88q0 7 5 9.5t14 4.5t14 6q3 2 9 8.5t11.5 9.5t11.5 3q26 0 59 -39zM-2 711q0 5 9 10t24.5 12t26.5 16q7 5 19 16.5t19 16.5t21 9.5t32 4.5q53 0 105.5 -11.5t52.5 -30.5q0 -8 -3.5 -16.5
t-13 -25.5t-15.5 -30q-95 -203 -95 -383q0 -89 32 -138.5t89 -49.5q46 0 83 42t61 116t39 165t20 198q1 32 28 32q29 0 54.5 -32.5t26.5 -65.5q3 -251 21 -383.5t53 -209.5q3 -6 3 -11q0 -15 -20 -15q-6 0 -13.5 2t-13 4.5t-15.5 7.5l-16 8l-15 6t-14.5 6t-10.5 8t-9 15
q-25 73 -38 249q-4 30 -14 30q-8 0 -15 -21q-41 -135 -101 -208.5t-129 -73.5q-77 0 -134 78t-57 195q0 112 36 215t96 213q-34 5 -91.5 5.5t-87.5 4.5t-30 20z" />
    <glyph glyph-name="Uacute" unicode="&#xda;" horiz-adv-x="716" 
d="M387 824q-24 0 -24 38q0 47 38 113t77 66q23 0 44 -12t21 -29q0 -15 -62 -85q-4 -5 -12 -14.5t-12.5 -14.5t-11.5 -13.5t-11.5 -13.5t-10.5 -11t-10.5 -10t-9.5 -7.5t-9 -5t-7 -1.5zM-2 711q0 5 9 10t24.5 12t26.5 16q7 5 19 16.5t19 16.5t21 9.5t32 4.5
q53 0 105.5 -11.5t52.5 -30.5q0 -8 -3.5 -16.5t-13 -25.5t-15.5 -30q-95 -203 -95 -383q0 -89 32 -138.5t89 -49.5q46 0 83 42t61 116t39 165t20 198q1 32 28 32q29 0 54.5 -32.5t26.5 -65.5q3 -251 21 -383.5t53 -209.5q3 -6 3 -11q0 -15 -20 -15q-6 0 -13.5 2t-13 4.5
t-15.5 7.5l-16 8l-15 6t-14.5 6t-10.5 8t-9 15q-25 73 -38 249q-4 30 -14 30q-8 0 -15 -21q-41 -135 -101 -208.5t-129 -73.5q-77 0 -134 78t-57 195q0 112 36 215t96 213q-34 5 -91.5 5.5t-87.5 4.5t-30 20z" />
    <glyph glyph-name="Ucircumflex" unicode="&#xdb;" horiz-adv-x="716" 
d="M279 843q0 44 63 121t109 77q53 0 97 -44.5t44 -77.5q0 -24 -20 -31q-10 -4 -24.5 -28t-20.5 -24q-5 0 -17 23q-20 43 -44.5 69.5t-41.5 26.5q-29 0 -86 -85q-3 -5 -8 -12t-7 -10.5t-5.5 -8t-5.5 -6.5t-4.5 -5t-4.5 -4t-4.5 -1.5t-5.5 -0.5q-14 0 -14 21zM-2 711
q0 5 9 10t24.5 12t26.5 16q7 5 19 16.5t19 16.5t21 9.5t32 4.5q53 0 105.5 -11.5t52.5 -30.5q0 -8 -3.5 -16.5t-13 -25.5t-15.5 -30q-95 -203 -95 -383q0 -89 32 -138.5t89 -49.5q46 0 83 42t61 116t39 165t20 198q1 32 28 32q29 0 54.5 -32.5t26.5 -65.5q3 -251 21 -383.5
t53 -209.5q3 -6 3 -11q0 -15 -20 -15q-6 0 -13.5 2t-13 4.5t-15.5 7.5l-16 8l-15 6t-14.5 6t-10.5 8t-9 15q-25 73 -38 249q-4 30 -14 30q-8 0 -15 -21q-41 -135 -101 -208.5t-129 -73.5q-77 0 -134 78t-57 195q0 112 36 215t96 213q-34 5 -91.5 5.5t-87.5 4.5t-30 20z" />
    <glyph glyph-name="Udieresis" unicode="&#xdc;" horiz-adv-x="716" 
d="M457 937q0 16 46 47t69 31q7 0 10 -4.5t6 -16t5 -17.5q2 -4 11.5 -5t9.5 -9q0 -25 -25.5 -50.5t-51.5 -25.5q-24 0 -52 17.5t-28 32.5zM251 921q0 17 48 47.5t79 30.5q17 0 25 -18.5t8 -44.5q0 -25 -25.5 -50.5t-51.5 -25.5q-25 0 -54 21.5t-29 39.5zM-2 711q0 5 9 10
t24.5 12t26.5 16q7 5 19 16.5t19 16.5t21 9.5t32 4.5q53 0 105.5 -11.5t52.5 -30.5q0 -8 -3.5 -16.5t-13 -25.5t-15.5 -30q-95 -203 -95 -383q0 -89 32 -138.5t89 -49.5q46 0 83 42t61 116t39 165t20 198q1 32 28 32q29 0 54.5 -32.5t26.5 -65.5q3 -251 21 -383.5t53 -209.5
q3 -6 3 -11q0 -15 -20 -15q-6 0 -13.5 2t-13 4.5t-15.5 7.5l-16 8l-15 6t-14.5 6t-10.5 8t-9 15q-25 73 -38 249q-4 30 -14 30q-8 0 -15 -21q-41 -135 -101 -208.5t-129 -73.5q-77 0 -134 78t-57 195q0 112 36 215t96 213q-34 5 -91.5 5.5t-87.5 4.5t-30 20z" />
    <glyph glyph-name="Yacute" unicode="&#xdd;" horiz-adv-x="571" 
d="M343 824q-24 0 -24 38q0 47 38 113t77 66q23 0 44 -12t21 -29q0 -15 -62 -85q-4 -5 -12 -14.5t-12.5 -14.5t-11.5 -13.5t-11.5 -13.5t-10.5 -11t-10.5 -10t-9.5 -7.5t-9 -5t-7 -1.5zM84 733q9 30 24 30q9 0 28 -14.5t28 -18.5q7 -3 19.5 -4.5t18.5 -4.5t6 -13
q0 -6 -12.5 -63.5t-12.5 -97.5q0 -152 130 -152q91 0 148 87.5t73 258.5q4 35 22 35q42 0 42 -67q0 -60 -15 -123t-44.5 -123.5t-82.5 -103.5t-121 -53q-5 -87 0 -169.5t12 -136t7 -58.5q0 -23 -17 -23q-8 0 -21.5 8.5t-25.5 12.5q-5 2 -20 5.5t-19.5 6t-14 10t-12.5 18
t-6 30t-3 46.5q0 104 21 254q-90 17 -136 83t-46 163q0 80 30 177z" />
    <glyph glyph-name="Thorn" unicode="&#xde;" horiz-adv-x="582" 
d="M265 770q20 0 20 -23q0 -11 -2.5 -27.5t-7 -45t-7.5 -57.5h15q119 0 204 -67t85 -191q0 -109 -80.5 -201t-208.5 -116q6 -38 25 -130q2 -11 -3.5 -20.5t-11.5 -9.5q-7 0 -22.5 13.5t-29.5 17.5l-17.5 3.5t-17 4t-12 6t-12 12.5t-8.5 21q-27 87 -27 275q0 124 16 246
q-28 -13 -58 -34.5t-49.5 -35t-32.5 -13.5q-10 0 -16.5 7.5t-6.5 20.5q0 8 4.5 18.5t13.5 27t13 24.5q3 5 7.5 18t10.5 21.5t17 15.5q61 36 117 52q37 167 82 167zM254 317q0 -104 18 -215q185 46 185 235q0 79 -58.5 123t-132.5 44h-7q-5 -83 -5 -187z" />
    <glyph glyph-name="germandbls" unicode="&#xdf;" horiz-adv-x="476" 
d="M225 -128q6 -23 6 -34t-9.5 -14t-18.5 -1.5t-20.5 4.5t-15.5 3q-18 0 -28.5 6.5t-18.5 27.5q-73 193 -73 493q0 210 60.5 332.5t170.5 122.5q66 0 99.5 -36t33.5 -98q0 -76 -77 -151h5q54 0 91 -43.5t37 -130.5q0 -96 -55 -190.5t-116 -94.5q-24 0 -56 18q-28 16 -28 29
q0 9 8 12.5t19.5 4.5t30.5 11t36 29q22 25 38 75.5t16 94.5q0 52 -19.5 83t-49.5 31q-15 0 -36 -7t-24 -7q-25 0 -25 26q0 35 17 47q37 24 59.5 66.5t22.5 84.5q0 37 -14 58.5t-39 21.5q-15 0 -28.5 -10t-27.5 -37.5t-23.5 -71t-16 -116.5t-6.5 -168q0 -270 75 -471z" />
    <glyph glyph-name="agrave" unicode="&#xe0;" horiz-adv-x="472" 
d="M280 702q25 -29 40.5 -69.5t15.5 -70.5q0 -38 -19 -38q-31 0 -105 88q-56 63 -56 88q0 7 5 9.5t14 4.5t14 6q3 2 9 8.5t11.5 9.5t11.5 3q26 0 59 -39zM277 478q61 0 108.5 -24.5t47.5 -46.5q0 -8 -8 -8q-3 0 -7.5 0.5t-6.5 0.5q-4 0 -11 -5.5t-12 -5.5q-2 0 -34 16
q5 -32 8 -45q8 -34 11.5 -48.5t11.5 -44t14 -43.5t15.5 -31t19.5 -24t22 -7q24 0 52.5 23.5t42.5 23.5q19 0 19 -19q0 -28 -31.5 -71t-76.5 -43q-30 0 -53.5 14.5t-37 35.5t-22.5 42t-15 35.5t-11 14.5q-4 0 -10.5 -8t-17.5 -24t-18 -26q-48 -61 -123 -61q-52 0 -89 36.5
t-37 104.5q0 95 73 166.5t176 71.5zM132 272q0 -57 46 -57q31 0 56.5 41.5t33.5 122.5q3 22 30 44q-6 1 -20 1q-58 0 -102 -47t-44 -105z" />
    <glyph glyph-name="aacute" unicode="&#xe1;" horiz-adv-x="472" 
d="M230 524q-24 0 -24 38q0 47 38 113t77 66q23 0 44 -12t21 -29q0 -15 -62 -85q-4 -5 -12 -14.5t-12.5 -14.5t-11.5 -13.5t-11.5 -13.5t-10.5 -11t-10.5 -10t-9.5 -7.5t-9 -5t-7 -1.5zM277 478q61 0 108.5 -24.5t47.5 -46.5q0 -8 -8 -8q-3 0 -7.5 0.5t-6.5 0.5
q-4 0 -11 -5.5t-12 -5.5q-2 0 -34 16q5 -32 8 -45q8 -34 11.5 -48.5t11.5 -44t14 -43.5t15.5 -31t19.5 -24t22 -7q24 0 52.5 23.5t42.5 23.5q19 0 19 -19q0 -28 -31.5 -71t-76.5 -43q-30 0 -53.5 14.5t-37 35.5t-22.5 42t-15 35.5t-11 14.5q-4 0 -10.5 -8t-17.5 -24t-18 -26
q-48 -61 -123 -61q-52 0 -89 36.5t-37 104.5q0 95 73 166.5t176 71.5zM132 272q0 -57 46 -57q31 0 56.5 41.5t33.5 122.5q3 22 30 44q-6 1 -20 1q-58 0 -102 -47t-44 -105z" />
    <glyph glyph-name="acircumflex" unicode="&#xe2;" horiz-adv-x="472" 
d="M122 543q0 44 63 121t109 77q53 0 97 -44.5t44 -77.5q0 -24 -20 -31q-10 -4 -24.5 -28t-20.5 -24t-17 23q-20 43 -44.5 69.5t-41.5 26.5q-29 0 -86 -85q-3 -5 -8 -12t-7 -10.5t-5.5 -8t-5.5 -6.5t-4.5 -5t-4.5 -4t-4.5 -1.5t-5.5 -0.5q-14 0 -14 21zM277 478
q61 0 108.5 -24.5t47.5 -46.5q0 -8 -8 -8q-3 0 -7.5 0.5t-6.5 0.5q-4 0 -11 -5.5t-12 -5.5q-2 0 -34 16q5 -32 8 -45q8 -34 11.5 -48.5t11.5 -44t14 -43.5t15.5 -31t19.5 -24t22 -7q24 0 52.5 23.5t42.5 23.5q19 0 19 -19q0 -28 -31.5 -71t-76.5 -43q-30 0 -53.5 14.5
t-37 35.5t-22.5 42t-15 35.5t-11 14.5q-4 0 -10.5 -8t-17.5 -24t-18 -26q-48 -61 -123 -61q-52 0 -89 36.5t-37 104.5q0 95 73 166.5t176 71.5zM132 272q0 -57 46 -57q31 0 56.5 41.5t33.5 122.5q3 22 30 44q-6 1 -20 1q-58 0 -102 -47t-44 -105z" />
    <glyph glyph-name="atilde" unicode="&#xe3;" horiz-adv-x="472" 
d="M448 744q20 0 20 -25q0 -22 -10 -53t-38.5 -61t-67.5 -30q-27 0 -69.5 17.5t-62.5 17.5q-23 0 -39 -13t-22 -28.5t-14 -28.5t-17 -13q-22 0 -22 26q0 54 33 104.5t92 50.5q27 0 72.5 -17.5t64.5 -17.5q16 0 28.5 11t19.5 24.5t15.5 24.5t16.5 11zM277 478
q61 0 108.5 -24.5t47.5 -46.5q0 -8 -8 -8q-3 0 -7.5 0.5t-6.5 0.5q-4 0 -11 -5.5t-12 -5.5q-2 0 -34 16q5 -32 8 -45q8 -34 11.5 -48.5t11.5 -44t14 -43.5t15.5 -31t19.5 -24t22 -7q24 0 52.5 23.5t42.5 23.5q19 0 19 -19q0 -28 -31.5 -71t-76.5 -43q-30 0 -53.5 14.5
t-37 35.5t-22.5 42t-15 35.5t-11 14.5q-4 0 -10.5 -8t-17.5 -24t-18 -26q-48 -61 -123 -61q-52 0 -89 36.5t-37 104.5q0 95 73 166.5t176 71.5zM132 272q0 -57 46 -57q31 0 56.5 41.5t33.5 122.5q3 22 30 44q-6 1 -20 1q-58 0 -102 -47t-44 -105z" />
    <glyph glyph-name="adieresis" unicode="&#xe4;" horiz-adv-x="472" 
d="M300 637q0 16 46 47t69 31q7 0 10 -4.5t6 -16t5 -17.5q2 -4 11.5 -5t9.5 -9q0 -25 -25.5 -50.5t-51.5 -25.5q-24 0 -52 17.5t-28 32.5zM94 621q0 17 48 47.5t79 30.5q17 0 25 -18.5t8 -44.5q0 -25 -25.5 -50.5t-51.5 -25.5q-25 0 -54 21.5t-29 39.5zM277 478
q61 0 108.5 -24.5t47.5 -46.5q0 -8 -8 -8q-3 0 -7.5 0.5t-6.5 0.5q-4 0 -11 -5.5t-12 -5.5q-2 0 -34 16q5 -32 8 -45q8 -34 11.5 -48.5t11.5 -44t14 -43.5t15.5 -31t19.5 -24t22 -7q24 0 52.5 23.5t42.5 23.5q19 0 19 -19q0 -28 -31.5 -71t-76.5 -43q-30 0 -53.5 14.5
t-37 35.5t-22.5 42t-15 35.5t-11 14.5q-4 0 -10.5 -8t-17.5 -24t-18 -26q-48 -61 -123 -61q-52 0 -89 36.5t-37 104.5q0 95 73 166.5t176 71.5zM132 272q0 -57 46 -57q31 0 56.5 41.5t33.5 122.5q3 22 30 44q-6 1 -20 1q-58 0 -102 -47t-44 -105z" />
    <glyph glyph-name="aring" unicode="&#xe5;" horiz-adv-x="472" 
d="M153 646q0 73 42.5 115.5t97.5 42.5q49 0 83 -33.5t34 -94.5q0 -65 -39.5 -114.5t-101.5 -49.5q-51 0 -83.5 41t-32.5 93zM298 750q-24 0 -41.5 -19.5t-17.5 -52.5q0 -41 17.5 -65.5t43.5 -24.5q24 0 41 24.5t17 60.5q0 38 -18 57.5t-42 19.5zM277 478q61 0 108.5 -24.5
t47.5 -46.5q0 -8 -8 -8q-3 0 -7.5 0.5t-6.5 0.5q-4 0 -11 -5.5t-12 -5.5q-2 0 -34 16q5 -32 8 -45q8 -34 11.5 -48.5t11.5 -44t14 -43.5t15.5 -31t19.5 -24t22 -7q24 0 52.5 23.5t42.5 23.5q19 0 19 -19q0 -28 -31.5 -71t-76.5 -43q-30 0 -53.5 14.5t-37 35.5t-22.5 42
t-15 35.5t-11 14.5q-4 0 -10.5 -8t-17.5 -24t-18 -26q-48 -61 -123 -61q-52 0 -89 36.5t-37 104.5q0 95 73 166.5t176 71.5zM132 272q0 -57 46 -57q31 0 56.5 41.5t33.5 122.5q3 22 30 44q-6 1 -20 1q-58 0 -102 -47t-44 -105z" />
    <glyph glyph-name="ae" unicode="&#xe6;" horiz-adv-x="655" 
d="M533 28q-90 0 -167 43.5t-103 122.5q-56 -94 -119 -94q-48 0 -82 36t-34 105q0 95 73.5 166.5t180.5 71.5q49 0 99 -25q29 10 66 10q61 0 104 -27t43 -71t-33.5 -71t-80.5 -27q-63 0 -119 38q-1 -7 -1 -22q0 -66 56 -107.5t136 -41.5q70 0 120 41q12 10 30 27.5t29 25.5
t22 8q13 0 13 -31q0 -42 -51 -95q-81 -83 -182 -83zM132 273q0 -57 46 -57q24 0 46 25.5t35 75.5q13 64 59 103q-20 5 -40 5q-58 0 -102 -47t-44 -105zM448 417q-66 0 -83 -78q35 -7 64 -7q36 0 53.5 13t17.5 31q0 17 -16 29t-36 12z" />
    <glyph glyph-name="ccedilla" unicode="&#xe7;" horiz-adv-x="399" 
d="M287 28h-4q-1 -3 -3.5 -9.5t-5 -14t-4.5 -15.5q54 3 80 -25.5t26 -71.5q0 -63 -41.5 -97t-100.5 -34q-69 0 -110 48q-14 17 -14 29q0 11 11.5 20t11.5 17q0 13 11 13q2 0 28.5 -17.5t59.5 -17.5q68 0 68 50q0 39 -41 39q-10 0 -22.5 -3.5t-18.5 -3.5q-18 0 -18 19
q0 21 31 78q-96 13 -152 66t-56 126q0 104 79.5 188.5t177.5 84.5q66 0 66 -50q0 -25 -14.5 -40.5t-36.5 -15.5q-8 0 -29 2t-32 2q-47 0 -87 -30t-40 -80q0 -68 57.5 -109t141.5 -41q52 0 85 17.5t63 47.5q39 37 53 37q13 0 13 -31q0 -42 -51 -95q-81 -83 -182 -83z" />
    <glyph glyph-name="egrave" unicode="&#xe8;" horiz-adv-x="419" 
d="M236 702q25 -29 40.5 -69.5t15.5 -70.5q0 -38 -19 -38q-31 0 -105 88q-56 63 -56 88q0 7 5 9.5t14 4.5t14 6q3 2 9 8.5t11.5 9.5t11.5 3q26 0 59 -39zM307 28q-69 0 -131 24.5t-105.5 79.5t-43.5 130q0 92 54 147t140 55q61 0 104 -27t43 -71t-33.5 -71t-80.5 -27
q-63 0 -119 38q-1 -7 -1 -22q0 -66 56 -107.5t136 -41.5q70 0 120 41q12 10 30 27.5t29 25.5t22 8q13 0 13 -31q0 -42 -51 -95q-81 -83 -182 -83zM222 417q-66 0 -83 -78q35 -7 64 -7q36 0 53.5 13t17.5 31q0 17 -16 29t-36 12z" />
    <glyph glyph-name="eacute" unicode="&#xe9;" horiz-adv-x="419" 
d="M186 524q-24 0 -24 38q0 47 38 113t77 66q23 0 44 -12t21 -29q0 -15 -62 -85q-4 -5 -12 -14.5t-12.5 -14.5t-11.5 -13.5t-11.5 -13.5t-10.5 -11t-10.5 -10t-9.5 -7.5t-9 -5t-7 -1.5zM307 28q-69 0 -131 24.5t-105.5 79.5t-43.5 130q0 92 54 147t140 55q61 0 104 -27
t43 -71t-33.5 -71t-80.5 -27q-63 0 -119 38q-1 -7 -1 -22q0 -66 56 -107.5t136 -41.5q70 0 120 41q12 10 30 27.5t29 25.5t22 8q13 0 13 -31q0 -42 -51 -95q-81 -83 -182 -83zM222 417q-66 0 -83 -78q35 -7 64 -7q36 0 53.5 13t17.5 31q0 17 -16 29t-36 12z" />
    <glyph glyph-name="ecircumflex" unicode="&#xea;" horiz-adv-x="419" 
d="M78 543q0 44 63 121t109 77q53 0 97 -44.5t44 -77.5q0 -24 -20 -31q-10 -4 -24.5 -28t-20.5 -24t-17 23q-20 43 -44.5 69.5t-41.5 26.5q-29 0 -86 -85q-3 -5 -8 -12t-7 -10.5t-5.5 -8t-5.5 -6.5t-4.5 -5t-4.5 -4t-4.5 -1.5t-5.5 -0.5q-14 0 -14 21zM307 28
q-69 0 -131 24.5t-105.5 79.5t-43.5 130q0 92 54 147t140 55q61 0 104 -27t43 -71t-33.5 -71t-80.5 -27q-63 0 -119 38q-1 -7 -1 -22q0 -66 56 -107.5t136 -41.5q70 0 120 41q12 10 30 27.5t29 25.5t22 8q13 0 13 -31q0 -42 -51 -95q-81 -83 -182 -83zM222 417
q-66 0 -83 -78q35 -7 64 -7q36 0 53.5 13t17.5 31q0 17 -16 29t-36 12z" />
    <glyph glyph-name="edieresis" unicode="&#xeb;" horiz-adv-x="419" 
d="M256 637q0 16 46 47t69 31q7 0 10 -4.5t6 -16t5 -17.5q2 -4 11.5 -5t9.5 -9q0 -25 -25.5 -50.5t-51.5 -25.5q-24 0 -52 17.5t-28 32.5zM50 621q0 17 48 47.5t79 30.5q17 0 25 -18.5t8 -44.5q0 -25 -25.5 -50.5t-51.5 -25.5q-25 0 -54 21.5t-29 39.5zM307 28
q-69 0 -131 24.5t-105.5 79.5t-43.5 130q0 92 54 147t140 55q61 0 104 -27t43 -71t-33.5 -71t-80.5 -27q-63 0 -119 38q-1 -7 -1 -22q0 -66 56 -107.5t136 -41.5q70 0 120 41q12 10 30 27.5t29 25.5t22 8q13 0 13 -31q0 -42 -51 -95q-81 -83 -182 -83zM222 417
q-66 0 -83 -78q35 -7 64 -7q36 0 53.5 13t17.5 31q0 17 -16 29t-36 12z" />
    <glyph glyph-name="igrave" unicode="&#xec;" horiz-adv-x="286" 
d="M128 722q25 -29 40.5 -69.5t15.5 -70.5q0 -38 -19 -38q-31 0 -105 88q-56 63 -56 88q0 7 5 9.5t14 4.5t14 6q3 2 9 8.5t11.5 9.5t11.5 3q26 0 59 -39zM120 272q0 -75 25.5 -107t63.5 -32q34 0 66 19t55.5 38t35.5 19q18 0 18 -21q0 -34 -50 -94q-19 -23 -32 -35
t-41.5 -24.5t-64.5 -12.5q-63 0 -105 50t-42 152q0 55 21 164t38 109q15 0 23.5 -15t8.5 -31q0 -2 -10 -67t-10 -112z" />
    <glyph glyph-name="iacute" unicode="&#xed;" horiz-adv-x="286" 
d="M78 544q-24 0 -24 38q0 47 38 113t77 66q23 0 44 -12t21 -29q0 -15 -62 -85q-4 -5 -12 -14.5t-12.5 -14.5t-11.5 -13.5t-11.5 -13.5t-10.5 -11t-10.5 -10t-9.5 -7.5t-9 -5t-7 -1.5zM120 272q0 -75 25.5 -107t63.5 -32q34 0 66 19t55.5 38t35.5 19q18 0 18 -21
q0 -34 -50 -94q-19 -23 -32 -35t-41.5 -24.5t-64.5 -12.5q-63 0 -105 50t-42 152q0 55 21 164t38 109q15 0 23.5 -15t8.5 -31q0 -2 -10 -67t-10 -112z" />
    <glyph glyph-name="icircumflex" unicode="&#xee;" horiz-adv-x="286" 
d="M-30 563q0 44 63 121t109 77q53 0 97 -44.5t44 -77.5q0 -24 -20 -31q-10 -4 -24.5 -28t-20.5 -24t-17 23q-20 43 -44.5 69.5t-41.5 26.5q-29 0 -86 -85q-3 -5 -8 -12t-7 -10.5t-5.5 -8t-5.5 -6.5t-4.5 -5t-4.5 -4t-4.5 -1.5t-5.5 -0.5q-14 0 -14 21zM120 272
q0 -75 25.5 -107t63.5 -32q34 0 66 19t55.5 38t35.5 19q18 0 18 -21q0 -34 -50 -94q-19 -23 -32 -35t-41.5 -24.5t-64.5 -12.5q-63 0 -105 50t-42 152q0 55 21 164t38 109q15 0 23.5 -15t8.5 -31q0 -2 -10 -67t-10 -112z" />
    <glyph glyph-name="idieresis" unicode="&#xef;" horiz-adv-x="286" 
d="M148 657q0 16 46 47t69 31q7 0 10 -4.5t6 -16t5 -17.5q2 -4 11.5 -5t9.5 -9q0 -25 -25.5 -50.5t-51.5 -25.5q-24 0 -52 17.5t-28 32.5zM-58 641q0 17 48 47.5t79 30.5q17 0 25 -18.5t8 -44.5q0 -25 -25.5 -50.5t-51.5 -25.5q-25 0 -54 21.5t-29 39.5zM120 272
q0 -75 25.5 -107t63.5 -32q34 0 66 19t55.5 38t35.5 19q18 0 18 -21q0 -34 -50 -94q-19 -23 -32 -35t-41.5 -24.5t-64.5 -12.5q-63 0 -105 50t-42 152q0 55 21 164t38 109q15 0 23.5 -15t8.5 -31q0 -2 -10 -67t-10 -112z" />
    <glyph glyph-name="eth" unicode="&#xf0;" horiz-adv-x="557" 
d="M533 309q0 -125 -75.5 -201.5t-192.5 -76.5q-106 0 -170.5 64t-64.5 156q0 93 65.5 152t173.5 59q63 0 123 -30q-34 73 -105 134q-17 -8 -39.5 -22t-37 -22.5t-21.5 -8.5q-16 0 -40 10t-24 26q0 19 84 73q-32 19 -57 32q-20 10 -51.5 22t-46.5 20t-15 16q0 16 32 16
q106 0 217 -60q92 48 138 48q10 0 14.5 -7t6.5 -18.5t5 -16.5q2 -2 8 -6.5t6 -9.5q0 -11 -14 -19q-1 -1 -73 -32q154 -128 154 -298zM142 277q0 -72 45 -117t111 -43q68 1 99.5 36t31.5 106q0 51 -10 95q-83 52 -150 52q-127 0 -127 -129z" />
    <glyph glyph-name="ntilde" unicode="&#xf1;" horiz-adv-x="510" 
d="M379 684q20 0 20 -25q0 -22 -10 -53t-38.5 -61t-67.5 -30q-27 0 -69.5 17.5t-62.5 17.5q-23 0 -39 -13t-22 -28.5t-14 -28.5t-17 -13q-22 0 -22 26q0 54 33 104.5t92 50.5q27 0 72.5 -17.5t64.5 -17.5q16 0 28.5 11t19.5 24.5t15.5 24.5t16.5 11zM268 428q18 0 32.5 -6
t25 -20t18 -27t14 -36t9.5 -37.5t8 -40.5q12 -62 30 -95t55 -33q36 0 79 38t61 38q6 0 8.5 -0.5t6 -5.5t3.5 -15q0 -34 -50 -94q-62 -73 -133 -73q-55 0 -85 37t-47 111q-5 19 -10.5 50.5t-9.5 50t-10.5 38.5t-15.5 29.5t-21 9.5q-37 0 -70.5 -84.5t-43.5 -214.5
q-3 -35 -23 -35q-18 0 -33.5 16.5t-17.5 37.5q-1 17 4 102.5t2 117.5l-4.5 45t-2.5 32q-1 15 12 16q27 3 43 -15q11 -13 18 -68q1 -13 8 -13t14 18q51 126 126 126z" />
    <glyph glyph-name="ograve" unicode="&#xf2;" horiz-adv-x="456" 
d="M272 702q25 -29 40.5 -69.5t15.5 -70.5q0 -38 -19 -38q-31 0 -105 88q-56 63 -56 88q0 7 5 9.5t14 4.5t14 6q3 2 9 8.5t11.5 9.5t11.5 3q26 0 59 -39zM522 254q-50 -42 -120 -58q-21 -87 -76 -148t-134 -61q-66 0 -115.5 51t-49.5 152q0 42 16 94t50 90q26 29 58 33
q14 31 42.5 48t62.5 17q66 0 107 -50.5t48 -119.5q75 19 119 51q12 9 21 9t9 -9q0 -5 -2.5 -11.5t-7.5 -17t-8 -18.5q-1 -3 -2 -14.5t-5 -20.5t-13 -17zM206 360q0 -26 24.5 -49t73.5 -23q23 0 47 3q-6 63 -31.5 94t-56.5 31q-25 0 -41 -15t-16 -41zM114 206q0 -55 32 -88.5
t77 -33.5q38 0 70 27.5t48 74.5q-15 -1 -39 -1q-64 0 -109.5 37.5t-52.5 104.5q-26 -42 -26 -121z" />
    <glyph glyph-name="oacute" unicode="&#xf3;" horiz-adv-x="456" 
d="M222 524q-24 0 -24 38q0 47 38 113t77 66q23 0 44 -12t21 -29q0 -15 -62 -85q-4 -5 -12 -14.5t-12.5 -14.5t-11.5 -13.5t-11.5 -13.5t-10.5 -11t-10.5 -10t-9.5 -7.5t-9 -5t-7 -1.5zM522 254q-50 -42 -120 -58q-21 -87 -76 -148t-134 -61q-66 0 -115.5 51t-49.5 152
q0 42 16 94t50 90q26 29 58 33q14 31 42.5 48t62.5 17q66 0 107 -50.5t48 -119.5q75 19 119 51q12 9 21 9t9 -9q0 -5 -2.5 -11.5t-7.5 -17t-8 -18.5q-1 -3 -2 -14.5t-5 -20.5t-13 -17zM206 360q0 -26 24.5 -49t73.5 -23q23 0 47 3q-6 63 -31.5 94t-56.5 31q-25 0 -41 -15
t-16 -41zM114 206q0 -55 32 -88.5t77 -33.5q38 0 70 27.5t48 74.5q-15 -1 -39 -1q-64 0 -109.5 37.5t-52.5 104.5q-26 -42 -26 -121z" />
    <glyph glyph-name="ocircumflex" unicode="&#xf4;" horiz-adv-x="456" 
d="M114 543q0 44 63 121t109 77q53 0 97 -44.5t44 -77.5q0 -24 -20 -31q-10 -4 -24.5 -28t-20.5 -24t-17 23q-20 43 -44.5 69.5t-41.5 26.5q-29 0 -86 -85q-3 -5 -8 -12t-7 -10.5t-5.5 -8t-5.5 -6.5t-4.5 -5t-4.5 -4t-4.5 -1.5t-5.5 -0.5q-14 0 -14 21zM522 254
q-50 -42 -120 -58q-21 -87 -76 -148t-134 -61q-66 0 -115.5 51t-49.5 152q0 42 16 94t50 90q26 29 58 33q14 31 42.5 48t62.5 17q66 0 107 -50.5t48 -119.5q75 19 119 51q12 9 21 9t9 -9q0 -5 -2.5 -11.5t-7.5 -17t-8 -18.5q-1 -3 -2 -14.5t-5 -20.5t-13 -17zM206 360
q0 -26 24.5 -49t73.5 -23q23 0 47 3q-6 63 -31.5 94t-56.5 31q-25 0 -41 -15t-16 -41zM114 206q0 -55 32 -88.5t77 -33.5q38 0 70 27.5t48 74.5q-15 -1 -39 -1q-64 0 -109.5 37.5t-52.5 104.5q-26 -42 -26 -121z" />
    <glyph glyph-name="otilde" unicode="&#xf5;" horiz-adv-x="456" 
d="M440 744q20 0 20 -25q0 -22 -10 -53t-38.5 -61t-67.5 -30q-27 0 -69.5 17.5t-62.5 17.5q-23 0 -39 -13t-22 -28.5t-14 -28.5t-17 -13q-22 0 -22 26q0 54 33 104.5t92 50.5q27 0 72.5 -17.5t64.5 -17.5q16 0 28.5 11t19.5 24.5t15.5 24.5t16.5 11zM522 254
q-50 -42 -120 -58q-21 -87 -76 -148t-134 -61q-66 0 -115.5 51t-49.5 152q0 42 16 94t50 90q26 29 58 33q14 31 42.5 48t62.5 17q66 0 107 -50.5t48 -119.5q75 19 119 51q12 9 21 9t9 -9q0 -5 -2.5 -11.5t-7.5 -17t-8 -18.5q-1 -3 -2 -14.5t-5 -20.5t-13 -17zM206 360
q0 -26 24.5 -49t73.5 -23q23 0 47 3q-6 63 -31.5 94t-56.5 31q-25 0 -41 -15t-16 -41zM114 206q0 -55 32 -88.5t77 -33.5q38 0 70 27.5t48 74.5q-15 -1 -39 -1q-64 0 -109.5 37.5t-52.5 104.5q-26 -42 -26 -121z" />
    <glyph glyph-name="odieresis" unicode="&#xf6;" horiz-adv-x="456" 
d="M292 637q0 16 46 47t69 31q7 0 10 -4.5t6 -16t5 -17.5q2 -4 11.5 -5t9.5 -9q0 -25 -25.5 -50.5t-51.5 -25.5q-24 0 -52 17.5t-28 32.5zM86 621q0 17 48 47.5t79 30.5q17 0 25 -18.5t8 -44.5q0 -25 -25.5 -50.5t-51.5 -25.5q-25 0 -54 21.5t-29 39.5zM522 254
q-50 -42 -120 -58q-21 -87 -76 -148t-134 -61q-66 0 -115.5 51t-49.5 152q0 42 16 94t50 90q26 29 58 33q14 31 42.5 48t62.5 17q66 0 107 -50.5t48 -119.5q75 19 119 51q12 9 21 9t9 -9q0 -5 -2.5 -11.5t-7.5 -17t-8 -18.5q-1 -3 -2 -14.5t-5 -20.5t-13 -17zM206 360
q0 -26 24.5 -49t73.5 -23q23 0 47 3q-6 63 -31.5 94t-56.5 31q-25 0 -41 -15t-16 -41zM114 206q0 -55 32 -88.5t77 -33.5q38 0 70 27.5t48 74.5q-15 -1 -39 -1q-64 0 -109.5 37.5t-52.5 104.5q-26 -42 -26 -121z" />
    <glyph glyph-name="divide" unicode="&#xf7;" 
d="M199 522q0 21 51 52t85 31q10 0 13 -7t1.5 -16t2.5 -19q1 -3 6.5 -9t8.5 -12t3 -13q0 -21 -27.5 -46.5t-55.5 -25.5q-33 0 -60.5 20.5t-27.5 44.5zM36 299q0 37 118 71t231 34q81 0 81 -28q0 -8 -15 -20t-15 -19q0 -5 2.5 -15t2.5 -21q0 -16 -25 -16q-6 0 -17 0.5
t-16 0.5q-68 0 -123 -10t-88.5 -19.5t-49.5 -9.5q-24 0 -55 18.5t-31 33.5zM161 133q0 21 51 52t85 31q10 0 13 -7t1.5 -16t2.5 -19q1 -3 6.5 -9t8.5 -12t3 -13q0 -21 -27.5 -46.5t-55.5 -25.5q-33 0 -60.5 20.5t-27.5 44.5z" />
    <glyph glyph-name="oslash" unicode="&#xf8;" horiz-adv-x="456" 
d="M522 254q-50 -42 -120 -58q-21 -87 -76 -148t-134 -61q-22 0 -44 6q-23 -50 -33 -77q-12 -29 -21 -29q-24 3 -26 26q-1 25 28 107q-69 53 -69 170q0 42 16 94t50 90q26 29 58 33q14 31 42.5 48t62.5 17q19 0 39 -5q22 41 40 62q22 25 36 25q11 0 20.5 -14t9.5 -30
q0 -22 -39 -88q41 -48 49 -120q75 19 119 51q12 9 21 9t9 -9q0 -5 -2.5 -11.5t-7.5 -17t-8 -18.5q-1 -3 -2 -14.5t-5 -20.5t-13 -17zM206 360q0 -22 17 -42q3 7 20 43.5t26 54.5h-6q-25 0 -41 -15t-16 -41zM304 288q23 0 47 3q-4 45 -20 75q-7 -14 -22.5 -43.5t-17.5 -33.5
q4 -1 13 -1zM114 206q0 -46 24 -78q17 42 45 104q-36 36 -43 95q-26 -42 -26 -121zM239 185q-33 -66 -47 -96q17 -5 31 -5q38 0 70 27.5t48 74.5q-15 -1 -39 -1q-31 0 -58 9l-2.5 -5t-2.5 -4z" />
    <glyph glyph-name="ugrave" unicode="&#xf9;" horiz-adv-x="540" 
d="M346 731q25 -29 40.5 -69.5t15.5 -70.5q0 -38 -19 -38q-31 0 -105 88q-56 63 -56 88q0 7 5 9.5t14 4.5t14 6q3 2 9 8.5t11.5 9.5t11.5 3q26 0 59 -39zM522 161q24 0 52.5 23.5t42.5 23.5q19 0 19 -19q0 -28 -32.5 -71t-83.5 -43q-79 0 -112 81q-5 12 -7.5 26t-3.5 23.5
t-2.5 18t-4.5 13t-9 4.5q-2 0 -4 -1t-4 -3.5t-3.5 -5t-4.5 -8t-5 -10t-5.5 -12.5t-6.5 -14q-65 -135 -170 -135q-58 0 -91.5 50t-33.5 128q0 96 29.5 186t68.5 90q18 0 36.5 -19.5t18.5 -40.5q0 -3 -19 -89t-19 -147q0 -29 11 -50.5t32 -21.5q24 0 45 18.5t39 53.5t31 66.5
t28 73.5q1 4 1.5 5.5l1.5 4.5t2 5.5t2 4.5q9 25 31 39t44 14q44 0 44 -57q0 -12 -9 -60.5t-9 -62.5q0 -40 17.5 -61t42.5 -21z" />
    <glyph glyph-name="uacute" unicode="&#xfa;" horiz-adv-x="540" 
d="M296 553q-24 0 -24 38q0 47 38 113t77 66q23 0 44 -12t21 -29q0 -15 -62 -85q-4 -5 -12 -14.5t-12.5 -14.5t-11.5 -13.5t-11.5 -13.5t-10.5 -11t-10.5 -10t-9.5 -7.5t-9 -5t-7 -1.5zM522 161q24 0 52.5 23.5t42.5 23.5q19 0 19 -19q0 -28 -32.5 -71t-83.5 -43
q-79 0 -112 81q-5 12 -7.5 26t-3.5 23.5t-2.5 18t-4.5 13t-9 4.5q-2 0 -4 -1t-4 -3.5t-3.5 -5t-4.5 -8t-5 -10t-5.5 -12.5t-6.5 -14q-65 -135 -170 -135q-58 0 -91.5 50t-33.5 128q0 96 29.5 186t68.5 90q18 0 36.5 -19.5t18.5 -40.5q0 -3 -19 -89t-19 -147q0 -29 11 -50.5
t32 -21.5q24 0 45 18.5t39 53.5t31 66.5t28 73.5q1 4 1.5 5.5l1.5 4.5t2 5.5t2 4.5q9 25 31 39t44 14q44 0 44 -57q0 -12 -9 -60.5t-9 -62.5q0 -40 17.5 -61t42.5 -21z" />
    <glyph glyph-name="ucircumflex" unicode="&#xfb;" horiz-adv-x="540" 
d="M188 572q0 44 63 121t109 77q53 0 97 -44.5t44 -77.5q0 -24 -20 -31q-10 -4 -24.5 -28t-20.5 -24t-17 23q-20 43 -44.5 69.5t-41.5 26.5q-29 0 -86 -85q-3 -5 -8 -12t-7 -10.5t-5.5 -8t-5.5 -6.5t-4.5 -5t-4.5 -4t-4.5 -1.5t-5.5 -0.5q-14 0 -14 21zM522 161
q24 0 52.5 23.5t42.5 23.5q19 0 19 -19q0 -28 -32.5 -71t-83.5 -43q-79 0 -112 81q-5 12 -7.5 26t-3.5 23.5t-2.5 18t-4.5 13t-9 4.5q-2 0 -4 -1t-4 -3.5t-3.5 -5t-4.5 -8t-5 -10t-5.5 -12.5t-6.5 -14q-65 -135 -170 -135q-58 0 -91.5 50t-33.5 128q0 96 29.5 186t68.5 90
q18 0 36.5 -19.5t18.5 -40.5q0 -3 -19 -89t-19 -147q0 -29 11 -50.5t32 -21.5q24 0 45 18.5t39 53.5t31 66.5t28 73.5q1 4 1.5 5.5l1.5 4.5t2 5.5t2 4.5q9 25 31 39t44 14q44 0 44 -57q0 -12 -9 -60.5t-9 -62.5q0 -40 17.5 -61t42.5 -21z" />
    <glyph glyph-name="udieresis" unicode="&#xfc;" horiz-adv-x="540" 
d="M366 666q0 16 46 47t69 31q7 0 10 -4.5t6 -16t5 -17.5q2 -4 11.5 -5t9.5 -9q0 -25 -25.5 -50.5t-51.5 -25.5q-24 0 -52 17.5t-28 32.5zM160 650q0 17 48 47.5t79 30.5q17 0 25 -18.5t8 -44.5q0 -25 -25.5 -50.5t-51.5 -25.5q-25 0 -54 21.5t-29 39.5zM522 161
q24 0 52.5 23.5t42.5 23.5q19 0 19 -19q0 -28 -32.5 -71t-83.5 -43q-79 0 -112 81q-5 12 -7.5 26t-3.5 23.5t-2.5 18t-4.5 13t-9 4.5q-2 0 -4 -1t-4 -3.5t-3.5 -5t-4.5 -8t-5 -10t-5.5 -12.5t-6.5 -14q-65 -135 -170 -135q-58 0 -91.5 50t-33.5 128q0 96 29.5 186t68.5 90
q18 0 36.5 -19.5t18.5 -40.5q0 -3 -19 -89t-19 -147q0 -29 11 -50.5t32 -21.5q24 0 45 18.5t39 53.5t31 66.5t28 73.5q1 4 1.5 5.5l1.5 4.5t2 5.5t2 4.5q9 25 31 39t44 14q44 0 44 -57q0 -12 -9 -60.5t-9 -62.5q0 -40 17.5 -61t42.5 -21z" />
    <glyph glyph-name="yacute" unicode="&#xfd;" horiz-adv-x="471" 
d="M219 510q-24 0 -24 38q0 47 38 113t77 66q23 0 44 -12t21 -29q0 -15 -62 -85q-4 -5 -12 -14.5t-12.5 -14.5t-11.5 -13.5t-11.5 -13.5t-10.5 -11t-10.5 -10t-9.5 -7.5t-9 -5t-7 -1.5zM311 160q-9 29 -19 29q-7 0 -17 -16q-56 -95 -110 -95q-55 0 -83.5 47.5t-37.5 146.5
q-6 66 -6 155q0 28 8 37.5t30 9.5q23 0 45 -14t23 -48q0 -16 -0.5 -56t0 -68.5t3.5 -60t13 -48.5t26 -17q21 0 39 16.5t32 46t23 53t18.5 55.5t10.5 36q9 28 31.5 40.5t44.5 12.5q18 0 24 -8t6 -27q0 -17 -4.5 -69.5t-1.5 -97.5q5 -57 9 -105q52 32 90 76q18 21 29 21
q5 0 7.5 -3t3.5 -7t2.5 -11t2.5 -10q1 -4 8 -12t7 -12q0 -6 -6 -17q-40 -65 -138 -111q2 -71 -13 -130q-21 -83 -84.5 -125.5t-150.5 -42.5q-58 0 -102.5 31.5t-44.5 87.5q0 100 144 155q117 44 160 64q-6 40 -22 91zM126 -117q0 -31 23.5 -48t62.5 -17q52 0 90.5 32
t38.5 97q0 33 -1 49q-19 -7 -62.5 -20t-62 -20t-44 -19t-35.5 -25t-10 -29z" />
    <glyph glyph-name="thorn" unicode="&#xfe;" horiz-adv-x="452" 
d="M151 366q1 -19 11 -19t22 20q31 49 75 86t87 37q41 0 68.5 -30.5t27.5 -91.5q0 -96 -55 -190.5t-116 -94.5q-24 0 -56 18q-28 16 -28 29q0 9 8 12.5t19.5 4.5t30.5 11t36 29q22 25 38 75t16 95q0 44 -29 44q-23 0 -59 -39.5t-64 -98.5t-28 -106q0 -112 83 -332
q6 -19 6 -30q0 -20 -20 -20q-9 0 -24.5 4t-19.5 4q-18 0 -28.5 6.5t-18.5 27.5q-39 104 -62.5 286.5t-23.5 378.5q0 75 0.5 113.5t3.5 90.5t11 75t21 23q25 0 48.5 -29.5t23.5 -72.5q0 -22 -5 -163t1 -153z" />
    <glyph glyph-name="ydieresis" unicode="&#xff;" horiz-adv-x="471" 
d="M289 623q0 16 46 47t69 31q7 0 10 -4.5t6 -16t5 -17.5q2 -4 11.5 -5t9.5 -9q0 -25 -25.5 -50.5t-51.5 -25.5q-24 0 -52 17.5t-28 32.5zM83 607q0 17 48 47.5t79 30.5q17 0 25 -18.5t8 -44.5q0 -25 -25.5 -50.5t-51.5 -25.5q-25 0 -54 21.5t-29 39.5zM311 160
q-9 29 -19 29q-7 0 -17 -16q-56 -95 -110 -95q-55 0 -83.5 47.5t-37.5 146.5q-6 66 -6 155q0 28 8 37.5t30 9.5q23 0 45 -14t23 -48q0 -16 -0.5 -56t0 -68.5t3.5 -60t13 -48.5t26 -17q21 0 39 16.5t32 46t23 53t18.5 55.5t10.5 36q9 28 31.5 40.5t44.5 12.5q18 0 24 -8
t6 -27q0 -17 -4.5 -69.5t-1.5 -97.5q5 -57 9 -105q52 32 90 76q18 21 29 21q5 0 7.5 -3t3.5 -7t2.5 -11t2.5 -10q1 -4 8 -12t7 -12q0 -6 -6 -17q-40 -65 -138 -111q2 -71 -13 -130q-21 -83 -84.5 -125.5t-150.5 -42.5q-58 0 -102.5 31.5t-44.5 87.5q0 100 144 155
q117 44 160 64q-6 40 -22 91zM126 -117q0 -31 23.5 -48t62.5 -17q52 0 90.5 32t38.5 97q0 33 -1 49q-19 -7 -62.5 -20t-62 -20t-44 -19t-35.5 -25t-10 -29z" />
    <glyph glyph-name="dotlessi" unicode="&#x131;" horiz-adv-x="286" 
d="M120 272q0 -75 25.5 -107t63.5 -32q34 0 66 19t55.5 38t35.5 19q18 0 18 -21q0 -34 -50 -94q-19 -23 -32 -35t-41.5 -24.5t-64.5 -12.5q-63 0 -105 50t-42 152q0 55 21 164t38 109q15 0 23.5 -15t8.5 -31q0 -2 -10 -67t-10 -112z" />
    <glyph glyph-name="florin" unicode="&#x192;" horiz-adv-x="327" 
d="M137 395q0 -31 3 -62q78 13 145 -2q17 -4 17 -20q0 -5 -2 -14t-2 -13t3.5 -11.5t3.5 -13.5q0 -14 -16 -14q-1 0 -10.5 0.5t-20.5 0.5h-27.5t-30.5 -1q-32 -2 -47 -3q25 -142 25 -184q0 -122 -48.5 -182.5t-124.5 -60.5q-51 0 -90 29t-39 80q0 27 19.5 45.5t38.5 18.5
q15 0 15 -15q0 -26 20.5 -48.5t57.5 -22.5q42 0 60 20t18 59q0 29 -14.5 75t-29 111t-14.5 139q0 43 10 84t32 80.5t63.5 64t97.5 24.5q33 0 56 -15.5t23 -35.5q0 -16 -12.5 -29t-27.5 -13q-10 0 -38 11t-45 11q-32 0 -50.5 -25t-18.5 -68z" />
    <glyph glyph-name="circumflex" unicode="&#x2c6;" 
d="M106 543q0 44 63 121t109 77q53 0 97 -44.5t44 -77.5q0 -24 -20 -31q-10 -4 -24.5 -28t-20.5 -24t-17 23q-20 43 -44.5 69.5t-41.5 26.5q-29 0 -86 -85q-3 -5 -8 -12t-7 -10.5t-5.5 -8t-5.5 -6.5t-4.5 -5t-4.5 -4t-4.5 -1.5t-5.5 -0.5q-14 0 -14 21z" />
    <glyph glyph-name="caron" unicode="&#x2c7;" 
d="M417 745q0 -44 -75 -139t-120 -95q-51 0 -94.5 56t-43.5 90q0 27 23 57t40 30q13 0 23 -24q17 -39 43.5 -79t37.5 -40q12 0 42.5 34.5t61.5 81.5q3 5 7.5 11t7 9.5t5.5 8t5 7t4.5 5.5t4.5 4t4 2.5t4 2t5 0.5q15 0 15 -22z" />
    <glyph glyph-name="breve" unicode="&#x2d8;" 
d="M417 736q0 -41 -23 -92t-70 -92t-102 -41q-62 0 -100.5 45.5t-38.5 104.5q0 18 25 46t44 28q17 0 23 -33q18 -102 79 -102q34 0 57.5 24t46.5 75q15 34 24.5 46.5t19.5 12.5q15 0 15 -22z" />
    <glyph glyph-name="dotaccent" unicode="&#x2d9;" 
d="M156 662q0 13 19.5 19.5t58 19t69.5 33.5q5 4 10 4q8 0 15 -7.5t7 -17.5q0 -7 -1.5 -14t-1.5 -10q0 -4 6 -11t6 -12q0 -26 -26.5 -48t-57.5 -22q-35 0 -69.5 20.5t-34.5 45.5z" />
    <glyph glyph-name="ring" unicode="&#x2da;" 
d="M138 646q0 73 42.5 115.5t97.5 42.5q49 0 83 -33.5t34 -94.5q0 -65 -39.5 -114.5t-101.5 -49.5q-51 0 -83.5 41t-32.5 93zM283 750q-24 0 -41.5 -19.5t-17.5 -52.5q0 -41 17.5 -65.5t43.5 -24.5q24 0 41 24.5t17 60.5q0 38 -18 57.5t-42 19.5z" />
    <glyph glyph-name="ogonek" unicode="&#x2db;" 
d="M124 -122q0 65 44 127t83 62q28 0 28 -19q0 -11 -26 -37q-56 -54 -56 -120q0 -31 17 -52t54 -21q34 0 62 15q31 15 37 15q8 0 8 -8q0 -5 -3.5 -15t-3.5 -19q0 -2 2 -7t2 -9q0 -9 -14 -26q-33 -38 -92 -38q-60 0 -101 37.5t-41 114.5z" />
    <glyph glyph-name="tilde" unicode="&#x2dc;" 
d="M432 744q20 0 20 -25q0 -22 -10 -53t-38.5 -61t-67.5 -30q-27 0 -69.5 17.5t-62.5 17.5q-23 0 -39 -13t-22 -28.5t-14 -28.5t-17 -13q-22 0 -22 26q0 54 33 104.5t92 50.5q27 0 72.5 -17.5t64.5 -17.5q16 0 28.5 11t19.5 24.5t15.5 24.5t16.5 11z" />
    <glyph glyph-name="hungarumlaut" unicode="&#x2dd;" 
d="M273 540q-24 0 -24 38q0 47 38 113t77 66q23 0 44 -12t21 -29q0 -15 -62 -85q-4 -5 -12 -14.5t-12.5 -14.5t-11.5 -13.5t-11.5 -13.5t-10.5 -11t-10.5 -10t-9.5 -7.5t-9 -5t-7 -1.5zM95 524q-24 0 -24 38q0 47 38 113t77 66q23 0 44 -12t21 -29q0 -15 -62 -85
q-4 -5 -12 -14.5t-12.5 -14.5t-11.5 -13.5t-11.5 -13.5t-10.5 -11t-10.5 -10t-9.5 -7.5t-9 -5t-7 -1.5z" />
    <glyph glyph-name="gravecmb" unicode="&#x300;" horiz-adv-x="0" 
d="M14 702q25 -29 40.5 -69.5t15.5 -70.5q0 -38 -19 -38q-31 0 -105 88q-56 63 -56 88q0 7 5 9.5t14 4.5t14 6q3 2 9 8.5t11.5 9.5t11.5 3q26 0 59 -39z" />
    <glyph glyph-name="circumflexcmb" unicode="&#x302;" horiz-adv-x="0" 
d="M-144 543q0 44 63 121t109 77q53 0 97 -44.5t44 -77.5q0 -24 -20 -31q-10 -4 -24.5 -28t-20.5 -24t-17 23q-20 43 -44.5 69.5t-41.5 26.5q-29 0 -86 -85q-3 -5 -8 -12t-7 -10.5t-5.5 -8t-5.5 -6.5t-4.5 -5t-4.5 -4t-4.5 -1.5t-5.5 -0.5q-14 0 -14 21z" />
    <glyph glyph-name="tildecmb" unicode="&#x303;" horiz-adv-x="0" 
d="M182 744q20 0 20 -25q0 -22 -10 -53t-38.5 -61t-67.5 -30q-27 0 -69.5 17.5t-62.5 17.5q-23 0 -39 -13t-22 -28.5t-14 -28.5t-17 -13q-22 0 -22 26q0 54 33 104.5t92 50.5q27 0 72.5 -17.5t64.5 -17.5q16 0 28.5 11t19.5 24.5t15.5 24.5t16.5 11z" />
    <glyph glyph-name="macroncmb" unicode="&#x304;" horiz-adv-x="0" 
d="M38 642q89 0 89 -26q0 -4 -2 -14t-2 -14q0 -3 3.5 -9.5t3.5 -11.5q0 -20 -19 -20q-3 0 -29.5 2t-47.5 1q-22 -1 -48 -3t-43.5 -4t-20.5 -2q-16 0 -34.5 19t-18.5 36q0 15 53 30.5t116 15.5z" />
    <glyph glyph-name="brevecmb" unicode="&#x306;" horiz-adv-x="0" 
d="M167 736q0 -41 -23 -92t-70 -92t-102 -41q-62 0 -100.5 45.5t-38.5 104.5q0 18 25 46t44 28q17 0 23 -33q18 -102 79 -102q34 0 57.5 24t46.5 75q15 34 24.5 46.5t19.5 12.5q15 0 15 -22z" />
    <glyph glyph-name="dotaccentcmb" unicode="&#x307;" horiz-adv-x="0" 
d="M-94 662q0 13 19.5 19.5t58 19t69.5 33.5q5 4 10 4q8 0 15 -7.5t7 -17.5q0 -7 -1.5 -14t-1.5 -10q0 -4 6 -11t6 -12q0 -26 -26.5 -48t-57.5 -22q-35 0 -69.5 20.5t-34.5 45.5z" />
    <glyph glyph-name="dieresiscmb" unicode="&#x308;" horiz-adv-x="0" 
d="M34 637q0 16 46 47t69 31q7 0 10 -4.5t6 -16t5 -17.5q2 -4 11.5 -5t9.5 -9q0 -25 -25.5 -50.5t-51.5 -25.5q-24 0 -52 17.5t-28 32.5zM-172 621q0 17 48 47.5t79 30.5q17 0 25 -18.5t8 -44.5q0 -25 -25.5 -50.5t-51.5 -25.5q-25 0 -54 21.5t-29 39.5z" />
    <glyph glyph-name="ringcmb" unicode="&#x30a;" horiz-adv-x="0" 
d="M-112 646q0 73 42.5 115.5t97.5 42.5q49 0 83 -33.5t34 -94.5q0 -65 -39.5 -114.5t-101.5 -49.5q-51 0 -83.5 41t-32.5 93zM33 750q-24 0 -41.5 -19.5t-17.5 -52.5q0 -41 17.5 -65.5t43.5 -24.5q24 0 41 24.5t17 60.5q0 38 -18 57.5t-42 19.5z" />
    <glyph glyph-name="hungarumlautcmb" unicode="&#x30b;" horiz-adv-x="0" 
d="M23 540q-24 0 -24 38q0 47 38 113t77 66q23 0 44 -12t21 -29q0 -15 -62 -85q-4 -5 -12 -14.5t-12.5 -14.5t-11.5 -13.5t-11.5 -13.5t-10.5 -11t-10.5 -10t-9.5 -7.5t-9 -5t-7 -1.5zM-155 524q-24 0 -24 38q0 47 38 113t77 66q23 0 44 -12t21 -29q0 -15 -62 -85
q-4 -5 -12 -14.5t-12.5 -14.5t-11.5 -13.5t-11.5 -13.5t-10.5 -11t-10.5 -10t-9.5 -7.5t-9 -5t-7 -1.5z" />
    <glyph glyph-name="caroncmb" unicode="&#x30c;" horiz-adv-x="0" 
d="M167 745q0 -44 -75 -139t-120 -95q-51 0 -94.5 56t-43.5 90q0 27 23 57t40 30q13 0 23 -24q17 -39 43.5 -79t37.5 -40q12 0 42.5 34.5t61.5 81.5q3 5 7.5 11t7 9.5t5.5 8t5 7t4.5 5.5t4.5 4t4 2.5t4 2t5 0.5q15 0 15 -22z" />
    <glyph glyph-name="commaturnedabovecmb" unicode="&#x312;" horiz-adv-x="0" 
d="M-15 516q-29 0 -50 17t-21 48q0 66 55 127.5t100 61.5q17 0 17 -13q0 -14 -31 -38q-46 -34 -46 -65q0 -10 16.5 -14.5t32.5 -13.5t16 -30q0 -25 -28.5 -52.5t-60.5 -27.5z" />
    <glyph glyph-name="ogonekcmb" unicode="&#x328;" horiz-adv-x="0" 
d="M-126 -122q0 65 44 127t83 62q28 0 28 -19q0 -11 -26 -37q-56 -54 -56 -120q0 -31 17 -52t54 -21q34 0 62 15q31 15 37 15q8 0 8 -8q0 -5 -3.5 -15t-3.5 -19q0 -2 2 -7t2 -9q0 -9 -14 -26q-33 -38 -92 -38q-60 0 -101 37.5t-41 114.5z" />
    <glyph glyph-name="mu" unicode="&#x3bc;" horiz-adv-x="495" 
d="M323 194q-9 -20 -13.5 -29.5t-19.5 -35t-29 -39t-36.5 -26t-46.5 -12.5q-71 0 -103 64v-35q0 -36 21 -121.5t21 -107.5q0 -23 -24 -52t-40 -29q-54 0 -54 165q0 105 22 222t46 173l1 1q23 86 61 86q18 0 36.5 -19.5t18.5 -40.5q0 -2 -9 -49.5t-9 -87.5q0 -83 45 -83
q15 0 30.5 16.5t31 49t25 56.5t23.5 62q10 28 22 40.5t31 12.5q44 0 44 -55v-36.5v-40t1 -37t3.5 -39t7.5 -34t11.5 -34.5t17 -28t24.5 -27q5 -4 5 -9q0 -11 -17 -13q-11 -1 -18 -7t-14 -6q-42 0 -65 53.5t-27 129.5q-1 21 -8 21t-16 -19z" />
    <glyph glyph-name="endash" unicode="&#x2013;" horiz-adv-x="683" 
d="M380 429q200 0 200 -30q0 -4 -2 -13.5t-2 -14.5q0 -2 3.5 -9.5t3.5 -14.5q0 -14 -19 -14l-30 1q-31 2 -74.5 3t-82.5 0q-57 -2 -135 -13.5t-89 -11.5q-16 0 -34.5 19t-18.5 36q0 12 38 26.5t105 25t137 10.5z" />
    <glyph glyph-name="emdash" unicode="&#x2014;" horiz-adv-x="897" 
d="M438 429q135 0 245.5 -11.5t110.5 -33.5q0 -4 -2 -12.5t-2 -12.5q0 -3 3.5 -8.5t3.5 -10.5q0 -14 -19 -14q-2 0 -56.5 3.5t-135 6.5t-151.5 1q-55 -2 -120.5 -8.5t-109.5 -11.5t-52 -5q-16 0 -34.5 19t-18.5 36q0 12 46 26.5t126.5 25t165.5 10.5z" />
    <glyph glyph-name="quoteleft" unicode="&#x2018;" horiz-adv-x="341" 
d="M189 499q-39 0 -67.5 24t-28.5 54q0 67 63 140t107 73q21 0 21 -16t-29 -38q-67 -50 -67 -86q0 -8 39.5 -16.5t39.5 -29.5q0 -32 -26.5 -68.5t-51.5 -36.5z" />
    <glyph glyph-name="quoteright" unicode="&#x2019;" horiz-adv-x="341" 
d="M199 780q39 0 67.5 -24t28.5 -54q0 -67 -63 -140t-107 -73q-21 0 -21 16t29 38q67 50 67 86q0 8 -39.5 16.5t-39.5 29.5q0 32 26.5 68.5t51.5 36.5z" />
    <glyph glyph-name="quotedblleft" unicode="&#x201c;" horiz-adv-x="517" 
d="M365 536q-39 0 -67.5 24t-28.5 54q0 67 63 140t107 73q21 0 21 -16t-29 -38q-67 -50 -67 -86q0 -8 39.5 -16.5t39.5 -29.5q0 -32 -26.5 -68.5t-51.5 -36.5zM174 514q-38 0 -64.5 20t-26.5 47q0 62 63.5 135.5t111.5 73.5q17 0 17 -13q0 -18 -30 -41q-67 -50 -67 -86
q0 -9 10 -14t21.5 -8t21.5 -13t10 -28q0 -22 -23 -47.5t-44 -25.5z" />
    <glyph glyph-name="quotedblright" unicode="&#x201d;" horiz-adv-x="517" 
d="M390 817q38 0 64.5 -20t26.5 -47q0 -62 -63.5 -135.5t-111.5 -73.5q-17 0 -17 13q0 18 30 41q67 50 67 86q0 9 -10 14t-21.5 8t-21.5 13t-10 28q0 22 23 47.5t44 25.5zM199 795q39 0 67.5 -24t28.5 -54q0 -67 -63 -140t-107 -73q-21 0 -21 16t29 38q67 50 67 86
q0 8 -39.5 16.5t-39.5 29.5q0 32 26.5 68.5t51.5 36.5z" />
    <glyph glyph-name="bullet" unicode="&#x2022;" horiz-adv-x="555" 
d="M122 389q0 25 44.5 61.5t103.5 63t98 26.5q19 0 23.5 -11t4.5 -32t5 -33q2 -5 11 -16t15 -22.5t6 -23.5q0 -37 -50.5 -84t-100.5 -47q-59 0 -109.5 37t-50.5 81z" />
    <glyph glyph-name="guilsinglleft" unicode="&#x2039;" horiz-adv-x="460" 
d="M311 511q22 0 22 -15q0 -3 -0.5 -5t-2 -4t-2.5 -4t-4 -4.5t-5.5 -4.5t-7 -5t-8 -5.5t-9.5 -7t-11 -7.5q-116 -77 -116 -104q0 -23 64.5 -63t129.5 -63q24 -8 24 -18q0 -19 -33 -43.5t-54 -24.5q-29 0 -80 23.5t-96 68.5t-45 91q0 50 94.5 122.5t139.5 72.5z" />
    <glyph glyph-name="guilsinglright" unicode="&#x203a;" horiz-adv-x="460" 
d="M149 143q-22 0 -22 15q0 3 0.5 5t2 4t2.5 4t4 4.5t5.5 4.5t7 5t8 5.5t9.5 7t11 7.5q116 77 116 104q0 23 -64.5 63t-129.5 63q-24 8 -24 18q0 19 33 43.5t54 24.5q29 0 80 -23.5t96 -68.5t45 -91q0 -50 -94.5 -122.5t-139.5 -72.5z" />
    <glyph glyph-name="Euro" unicode="&#x20ac;" horiz-adv-x="553" 
d="M56 270q21 5 62 10q1 28 8 60q-16 -1 -43 -3.5t-36 -2.5q-17 0 -37 14t-20 25q0 14 152 28q39 111 127.5 173.5t193.5 62.5q56 0 56 -50v-5q0 -21 -1 -30.5t-9 -18t-24 -8.5q-18 0 -45.5 4.5t-38.5 4.5q-61 0 -112 -31.5t-74 -95.5q86 4 126 4q31 0 47 -0.5t37.5 -2
t31 -5.5t9.5 -11q0 -3 -1.5 -9.5t-1.5 -10.5q0 -3 4 -7.5t4 -8.5q0 -11 -22 -11q-87 0 -247 -2q-1 -9 -1 -28t1 -28q106 5 206.5 0t100.5 -17q0 -8 -17.5 -21.5t-33.5 -17.5q-6 -1 -31.5 -1.5t-66.5 -0.5t-73 -2q-24 -1 -75 -5q17 -66 56 -101.5t90 -35.5q57 0 110 28
q40 20 49 20t9 -10q0 -7 -6 -19t-6 -21q0 -5 3.5 -13t3.5 -12q0 -25 -55 -58t-120 -33q-95 0 -157 70t-71 176q-54 -4 -58 -4q-12 0 -22 10.5t-10 25.5q0 19 28 25z" />
    <glyph glyph-name="trademark" unicode="&#x2122;" horiz-adv-x="707" 
d="M94 782q5 0 19.5 -5t47 -10t80.5 -5q34 0 61 5.5t38 5.5h2q8 20 18 20q41 0 61 -52q48 -130 81 -185q17 28 49.5 102t50.5 105q22 39 45 39q21 0 29 -13t8 -42q0 -13 -3.5 -72.5t-3.5 -106.5q0 -60 7.5 -109.5t15 -77t7.5 -33.5q0 -22 -19 -22q-21 0 -49.5 24.5
t-37.5 61.5q-17 68 -20 181q-57 -154 -92 -154q-14 0 -29 18t-31 54t-24.5 59t-22.5 63q-1 -23 -1 -84q0 -36 2.5 -74t2.5 -43q0 -34 -20 -34q-22 0 -36 44t-14 122q0 94 14 164q-49 -24 -122 -33q-2 -26 -2 -71q0 -42 4 -84t7 -61.5t11.5 -58t8.5 -40.5q3 -16 3 -26
q0 -18 -17 -18q-19 0 -47 15.5t-39 49.5q-12 37 -12 116q0 86 16 173h-15q-38 0 -63.5 7.5t-34 15t-8.5 14.5q0 11 7.5 18.5t30.5 20.5q4 2 10.5 6.5t12.5 7t13 2.5z" />
    <glyph glyph-name="minus" unicode="&#x2212;" 
d="M36 299q0 37 118 71t231 34q81 0 81 -28q0 -8 -15 -20t-15 -19q0 -5 2.5 -15t2.5 -21q0 -16 -25 -16q-6 0 -17 0.5t-16 0.5q-68 0 -123 -10t-88.5 -19.5t-49.5 -9.5q-24 0 -55 18.5t-31 33.5z" />
    <glyph glyph-name="orn_1" unicode="&#x1f650;" horiz-adv-x="2565" 
d="M0 274q0 129 40.5 247t105 204.5t146 153t164 103t156.5 43.5q82 96 302 162.5t537 66.5q170 0 331 -34.5t303 -106t249 -171.5t169 -240.5t62 -304.5q0 -130 -43 -260.5t-121.5 -249.5t-197 -222.5t-261 -179t-322 -119t-372.5 -43.5q-234 0 -434 46t-348.5 131
t-254 202.5t-158.5 262.5t-53 309zM141 313q0 -140 37 -259.5t101.5 -207t154.5 -157.5t191 -115.5t217.5 -76t228.5 -43t227 -12.5q183 0 340 30t272 81.5t207.5 124t152.5 153.5t99.5 173.5t56.5 181t17 179.5q0 124 -39.5 232.5t-111 190.5t-169 146.5t-214.5 106
t-247 62.5t-268 21q-155 0 -304.5 -22.5t-268 -70t-158.5 -109.5q-29 -46 -54 -46q-15 0 -25.5 15.5t-10.5 45.5q0 12 3 24q-151 -43 -249.5 -137.5t-142 -221t-43.5 -289.5z" />
    <glyph glyph-name="orn_2" unicode="&#x1f651;" horiz-adv-x="4266" 
d="M0 274q0 122 51.5 233.5t138.5 195.5t198.5 153.5t234.5 115t242.5 72t226.5 32.5q182 75 499.5 126.5t656.5 51.5q169 0 342.5 -13.5t348 -39.5t339 -67.5t313 -95t272 -124t213.5 -152t140 -183t50 -212.5q0 -136 -74.5 -268t-211 -247t-337.5 -212.5t-445 -167.5
t-543.5 -109t-623.5 -39q-466 0 -850.5 71.5t-642 198t-398 301t-140.5 379.5zM141 313q0 -171 102.5 -314.5t282.5 -245.5t426 -173t532 -105t601 -34q310 0 580 26.5t477 74t375 114t283.5 144.5t194 167.5t114 181t35.5 186.5q0 160 -118 294t-313 224t-451 152.5
t-525.5 90.5t-544.5 28q-308 0 -680 -53t-493 -130q-38 -32 -63 -23q-11 4 -16 20t4 41q7 12 17 22q-390 -80 -605 -259.5t-215 -428.5z" />
    <glyph glyph-name="orn_3" unicode="&#x1f652;" horiz-adv-x="5968" 
d="M0 274q0 123 61 234t164.5 195.5t241 156t289.5 120.5t312 83t307 50t275 16q8 0 12 -1q277 54 659 90t725 36q267 0 545.5 -16t566 -51.5t550 -87t494 -127t401 -167t267.5 -212t98 -256.5q0 -171 -149 -326.5t-430 -279.5t-665 -215.5t-874 -141t-1036 -49.5
q-429 0 -812.5 32.5t-692 92t-555.5 145t-412.5 190.5t-253.5 229t-88 260zM141 313q0 -148 133 -282.5t380.5 -241t581.5 -185.5t754.5 -121.5t881.5 -42.5q438 0 820.5 23.5t681.5 66.5t543 104t415.5 135t288 161t171 180.5t54.5 194.5q0 125 -94 234.5t-257 191.5
t-387 149t-478 111.5t-537.5 75t-558 44t-545.5 13.5q-360 0 -894 -51t-720 -113q-51 -17 -71 1q-8 3 -7.5 24t18.5 36q11 10 39 23q-371 -61 -640 -163t-421 -247.5t-152 -320.5z" />
    <glyph glyph-name="orn_4" unicode="&#x1f653;" horiz-adv-x="3525" 
d="M2866 -919q-25 -9 -52 17t-31 74q-3 28 -4 71.5t-2 117.5t-2 131q-136 0 -589.5 -14.5t-711.5 -26.5q-28 -32 -59 -71t-59.5 -76t-35.5 -46q-23 -29 -50.5 -41t-88.5 -19q-57 -5 -262.5 -12t-474 -5.5t-384.5 21.5q-33 6 -51 51t-2 76q57 112 260.5 470.5t288.5 519.5
q-13 27 -88 178t-117.5 238.5t-104 219.5t-99 227t-51.5 154q-9 42 7.5 76t71.5 34q108 0 273 2.5t257.5 3t210.5 -4.5t213 -18q33 -5 58 -36q45 -58 114 -178t96 -162q217 3 445 0t580 -9t438 -7q31 114 93 265q13 31 41 35.5t51 -7t28 -23.5q39 -80 110 -261t129 -338.5
t128 -350.5t80 -220q13 -37 -4 -73q-60 -114 -181.5 -321t-268.5 -424t-200 -238zM2849 -507q0 -3 7 -226q54 38 158.5 207t247 432.5t143.5 265.5q-72 184 -192.5 531t-180.5 542q-25 -56 -43.5 -179t-19.5 -126q1 -23 -21 -43.5t-58 -20.5q-123 0 -776 48.5t-755 48.5
q-46 0 -74 36q-35 45 -70 95t-54.5 79t-57.5 89t-50 79q-101 8 -237.5 9.5t-259.5 -1t-295 0.5q31 -81 129.5 -344t176.5 -469t108 -281q15 -37 -2 -70q-105 -219 -250.5 -484t-249.5 -423q310 -28 998 -19q52 66 153 164.5t160 144.5q20 17 46 20q91 10 659.5 -9t580.5 -19
q75 0 79 -78z" />
    <glyph glyph-name="orn_5" unicode="&#x1f654;" horiz-adv-x="4955" 
d="M4296 -919q-25 -9 -52 17t-31 74q-3 28 -4 71.5t-2 117.5t-2 131q-226 0 -1291 -16.5t-1442 -26.5q-27 -32 -57.5 -71t-58.5 -74.5t-36 -45.5q-23 -29 -50.5 -41t-88.5 -19q-57 -5 -262.5 -12t-474 -5.5t-384.5 21.5q-33 6 -51 51t-2 76q57 112 260.5 470.5t288.5 519.5
q-13 27 -88 178t-117.5 238.5t-104 219.5t-99 227t-51.5 154q-9 42 7.5 76t71.5 34q108 0 273 2.5t257.5 3t210.5 -4.5t213 -18q33 -5 58 -36q44 -57 113 -176t98 -164q396 3 849 0.5t1225 -9.5t818 -7q31 114 93 265q13 31 41 35.5t51 -7t28 -23.5q39 -80 110 -261
t129 -338.5t128 -350.5t80 -220q13 -37 -4 -73q-60 -114 -181.5 -321t-268.5 -424t-200 -238zM4279 -507q0 -3 7 -226q54 38 158.5 207t247 432.5t143.5 265.5q-75 191 -195.5 539.5t-177.5 535.5q-26 -56 -43.5 -177t-19.5 -130q1 -23 -21 -43.5t-58 -20.5
q-122 0 -1489.5 48.5t-1471.5 48.5q-46 0 -74 36q-35 45 -70 95t-54.5 79t-57.5 89t-50 79q-101 8 -237.5 9.5t-259.5 -1t-295 0.5q31 -81 129.5 -344t176.5 -469t108 -281q15 -37 -2 -70q-105 -219 -250.5 -484t-249.5 -423q310 -28 998 -19q52 66 153 164.5t160 144.5
q20 17 46 20q201 7 727 0.5t1218 -17.5t725 -11q75 0 79 -78z" />
    <glyph glyph-name="orn_6" unicode="&#x1f655;" horiz-adv-x="6385" 
d="M5726 -919q-25 -9 -52 17t-31 74q-3 28 -4 71.5t-2 117.5t-2 131q-284 1 -1980 -16.5t-2183 -26.5q-27 -33 -58 -71.5t-58.5 -74t-35.5 -45.5q-23 -29 -50.5 -41t-88.5 -19q-57 -5 -262.5 -12t-474 -5.5t-384.5 21.5q-33 6 -51 51t-2 76q57 112 260.5 470.5t288.5 519.5
q-13 27 -88 178t-117.5 238.5t-104 219.5t-99 227t-51.5 154q-9 42 7.5 76t71.5 34q108 0 273 2.5t257.5 3t210.5 -4.5t213 -18q33 -5 58 -36q44 -58 112.5 -176t98.5 -164q73 4 824.5 2t1364.5 -5.5t1350.5 -8t782.5 -4.5q31 114 93 265q13 31 41 35.5t51 -7t28 -23.5
q39 -80 110 -261t129 -338.5t128 -350.5t80 -220q13 -37 -4 -73q-60 -114 -181.5 -321t-268.5 -424t-200 -238zM5709 -507q0 -3 7 -226q54 38 158.5 207t247 432.5t143.5 265.5q-78 199 -206.5 571t-178.5 543l11 -39q-28 -57 -44 -178.5t-18 -128.5q1 -23 -21 -43.5
t-58 -20.5q-120 0 -2202.5 49t-2188.5 48q-46 0 -74 36q-35 45 -70 95t-54.5 79t-57.5 89t-50 79q-101 8 -237.5 9.5t-259.5 -1t-295 0.5q31 -81 129.5 -344t176.5 -469t108 -281q15 -37 -2 -70q-105 -219 -250.5 -484t-249.5 -423q310 -28 998 -19q52 66 153 164.5
t160 144.5q20 17 46 20q270 7 1097.5 0.5t1906.5 -17.5t1096 -11q75 0 79 -78z" />
    <glyph glyph-name="orn_7" unicode="&#x1f656;" horiz-adv-x="2885" 
d="M429 1059q374 25 1966 -3q19 -438 486 -446q5 -23 3.5 -130t-5 -188.5t-8.5 -190.5t-6 -135q-243 18 -378 -102t-139 -382q-116 8 -408 10t-550 -0.5t-574 -6.5t-346 -4q-3 95 -26 168.5t-70.5 133.5t-131 94t-199.5 38q-39 475 -43 611q200 43 313.5 192t115.5 341z
M2297 -413q0 82 31.5 161.5t89 146.5t150 109t205.5 43q-9 377 -18 482q-236 -1 -356 121t-112 346q-109 -1 -850.5 -22t-918.5 -22q-28 -175 -149.5 -305t-286.5 -162q48 -283 64 -436q177 -17 288 -142.5t123 -361.5q211 -4 805.5 8t934.5 34z" />
    <glyph glyph-name="orn_8" unicode="&#x1f657;" horiz-adv-x="4669" 
d="M483 1064q186 -3 1036 -3t1714.5 0.5t955.5 0.5q17 -428 457 -440q7 -76 10.5 -294t2.5 -333q-221 -13 -345.5 -147.5t-127.5 -361.5q-400 -3 -1903 -1.5t-1803 3.5q-4 99 -30 176t-79 136.5t-140 92t-207 35.5q-14 135 -14 628q222 13 346.5 147t126.5 361zM4116 -408
q16 177 140.5 312t315.5 152q-7 59 -23 247t-18 212q-206 7 -322 131t-117 354q-336 2 -1761.5 -11.5t-1777.5 -30.5q-10 -114 -66.5 -214t-159 -169t-230.5 -81q8 -73 41 -458q207 -8 322.5 -131.5t117.5 -354.5q111 0 1685.5 21.5t1852.5 20.5z" />
    <glyph glyph-name="orn_9" unicode="&#x1f658;" horiz-adv-x="6453" 
d="M537 1069q217 -16 1586.5 -15.5t2345.5 6t1514 9.5q3 -95 26 -168.5t70.5 -133.5t131 -94t199.5 -38q39 -475 43 -611q-200 -43 -313.5 -192t-115.5 -341q-232 -16 -1562 -15.5t-2536 8t-1436 11.5q-19 438 -486 446q-5 97 -2.5 189.5t10 259.5t8.5 195q243 -18 378 102
t139 382zM5935 -402q28 175 149.5 305t286.5 162q-48 283 -64 436q-85 8 -156 42t-126.5 94.5t-89 154t-39.5 213.5q-336 1 -1353 2.5t-2317 -10t-1638 -33.5q0 -82 -31.5 -161.5t-89 -146.5t-150 -109t-205.5 -43q9 -377 18 -482q237 1 356.5 -121t111.5 -346
q55 0 920 12.5t1704 23t1726.5 15.5t986.5 -8z" />
    <glyph glyph-name="orn_10" unicode="&#x1f659;" horiz-adv-x="1141" 
d="M901 1338q17 0 17 -28q0 -50 -44 -159t-100 -199.5t-85 -90.5q-11 0 -11 24q0 49 37.5 157.5t92 202t93.5 93.5zM228 1221q32 0 68 -101t36 -173q0 -48 -21 -48q-26 0 -64 107t-38 174q0 41 19 41zM21 1117q26 0 53.5 -46t27.5 -84q0 -36 -29 -36q-26 0 -47.5 46.5
t-21.5 86.5q0 33 17 33zM529 1114q13 0 20.5 -24.5t7.5 -59.5q0 -48 -14.5 -84.5t-41.5 -36.5q-14 0 -22 20.5t-8 51.5q0 49 16 91t42 42zM1058 1070q16 0 16 -19q0 -33 -41.5 -101t-97 -124.5t-90.5 -56.5q-14 0 -14 18q0 32 39 100t94.5 125.5t93.5 57.5zM1128 806
q12 0 12 -13q0 -32 -50.5 -94t-85.5 -62q-23 0 -23 20q0 35 53.5 92t93.5 57z" />
    <glyph glyph-name="orn_11" unicode="&#x1f65a;" horiz-adv-x="1088" 
d="M11 -238q-8 0 -8 8q0 29 65 95t111 66q16 0 16 -14q0 -34 -66 -94.5t-118 -60.5zM9 -504q-10 0 -10 9q0 23 57 83.5t136.5 114.5t131.5 54q8 0 8 -7q0 -23 -54 -83.5t-133.5 -115.5t-135.5 -55zM341 -626q-19 0 -19 34q0 44 27.5 123.5t66 143t63.5 63.5q12 0 12 -29
q0 -75 -52 -205t-98 -130zM908 -731q-29 0 -73.5 151t-44.5 237q0 46 17 46q16 0 46.5 -70.5t55.5 -163t25 -147.5q0 -53 -26 -53zM629 -542q-12 0 -20 33.5t-8 78.5q0 51 10.5 87.5t30.5 36.5q15 0 23.5 -32t8.5 -77q0 -51 -11.5 -89t-33.5 -38zM1072 -525
q-24 0 -55.5 54.5t-31.5 94.5q0 35 29 35q25 0 52 -55t27 -97q0 -32 -21 -32z" />
    <glyph glyph-name="orn_12" unicode="&#x1f65b;" horiz-adv-x="1506" 
d="M738 1718q59 0 59 -40q0 -14 -32 -50.5t-32 -63.5q0 -13 17.5 -20t38.5 -9.5t38.5 -13t17.5 -28.5q0 -39 -32.5 -111.5t-32.5 -91.5q0 -18 12 -33.5t27 -25t27 -24t12 -30.5q0 -24 -24 -68.5t-24 -60.5q0 -25 18 -70t18 -70q0 -37 -27 -37q-40 0 -85 58t-45 106
q0 25 22 56t22 54q0 22 -17 36t-38 20t-38 20t-17 36q0 31 23.5 70t47 75t23.5 58q0 19 -15.5 35t-33.5 26.5t-33.5 30t-15.5 45.5q0 42 38.5 81.5t80.5 39.5zM352 1527q46 0 100.5 -52t54.5 -115q0 -26 -18.5 -52t-37.5 -47t-19 -34q0 -19 25.5 -25.5t62 -10.5t52.5 -17
q22 -18 35.5 -68.5t13.5 -104.5q0 -47 -10.5 -78.5t-30.5 -31.5q-14 0 -21.5 16.5t-17.5 50t-24 57.5q-20 38 -55.5 63t-64.5 34.5t-51 27.5t-22 47q0 14 25.5 49t25.5 68q0 29 -24 87.5t-24 100.5q0 35 25 35zM1075 1485q20 0 35 -15.5t15 -41.5q0 -11 -8 -37t-8 -38
q0 -23 16.5 -44.5t33 -39.5t16.5 -33q0 -18 -20 -39t-40 -45t-20 -49q0 -33 21 -69t21 -62q0 -16 -22 -46t-22 -62q0 -25 -17 -25q-25 0 -60 24.5t-35 48.5q0 15 32 33.5t32 28.5q0 18 -38.5 62t-38.5 67q0 15 34.5 46t34.5 53t-15.5 40t-31.5 39t-16 51q0 64 34 108.5
t67 44.5zM1462 1154q29 0 51.5 -27t22.5 -65q0 -40 -10.5 -61t-24 -25.5t-30 -14.5t-25.5 -29q-5 -11 7 -33.5t9 -29.5q-6 -13 -25 -21t-38 -12.5t-34 -25.5t-15 -60q0 -16 -11 -25t-28 -9q-24 0 -43.5 18t-19.5 49q0 28 11 46.5t23.5 25.5t23.5 19.5t11 28.5
q0 17 -3.5 41.5t-3 39t7.5 24.5q8 11 38.5 18.5t39.5 20.5q13 18 20 40t9 35.5t10.5 22.5t26.5 9zM15 1120q13 0 28.5 -15.5t32.5 -39t24 -30.5q13 -18 43 -0.5t44 13.5q35 -10 53 -60t18 -107q0 -75 -22 -75q-12 0 -23.5 15t-21.5 34.5t-27.5 41t-37.5 30.5q-9 4 -37 4
t-52 13q-27 14 -42 45t-15 64q0 27 10.5 47t24.5 20zM31 805q56 0 99 -52.5t43 -89.5q0 -15 -10 -15q-34 0 -99.5 53t-65.5 84q0 20 33 20z" />
    <glyph glyph-name="A.ss01" horiz-adv-x="819" 
d="M679 869q64 0 113 -14.5t66 -31.5q11 -11 11 -18q0 -8 -5.5 -12t-13 -4.5t-19 -3t-19.5 -8.5q-8 -5 -13.5 -20t-10.5 -15q-2 0 -42 12t-89 12q-252 0 -369.5 -126t-117.5 -352q0 -239 152 -239q95 0 185.5 149.5t150.5 439.5q5 23 30 37.5t46 14.5q26 0 18 -71
q-21 -195 -21 -323q0 -80 14.5 -114t50.5 -34q22 0 50 27t44 27q28 0 28 -31q0 -18 -17 -42q-46 -63 -120 -63q-84 0 -118 88q-12 31 -15.5 71.5t-5 62.5t-10.5 22q-3 0 -6 -3.5t-7.5 -12.5t-7 -16t-8.5 -22.5t-9 -22.5q-31 -76 -70 -131.5t-80 -84t-79 -41.5t-77 -13
q-102 0 -168 72t-66 222q0 118 50 230t133.5 196t199.5 135t242 51z" />
    <glyph glyph-name="B.ss01" horiz-adv-x="859" 
d="M806 161q0 -107 -65 -197.5t-170.5 -140.5t-223.5 -50q-152 0 -240 65.5t-88 175.5q0 70 42.5 129.5t87.5 59.5q11 0 18.5 -6t7.5 -16q0 -14 -15 -32q-36 -41 -36 -109q0 -75 66.5 -130.5t187.5 -55.5q151 0 232.5 72t81.5 195q0 101 -57.5 175.5t-133.5 94.5
q-51 -27 -94 -27q-46 0 -46 34q0 27 35 44.5t79 17.5q20 0 41 -3q45 48 45 124q0 63 -39.5 101t-108.5 38q-37 0 -70 -6q-27 -219 -27 -357q0 -162 25 -319q6 -43 -19 -43q-7 0 -13 3.5t-14.5 11t-14.5 11.5q-44 29 -53 58q-21 61 -21 159q0 131 18.5 252t46.5 199
q-67 -33 -168 -144q-12 -12 -20 -12q-5 0 -8.5 2.5t-5 8.5t-2 12t-1.5 15.5t-2 16.5q-10 46 31 93q42 46 127.5 90.5t193.5 44.5q110 0 177.5 -55t67.5 -141q0 -99 -84 -176q96 -30 162.5 -104.5t66.5 -178.5z" />
    <glyph glyph-name="C.ss01" horiz-adv-x="964" 
d="M562 285q-106 0 -214 27q-7 -45 -7 -102q0 -94 31 -168.5t83.5 -119.5t116.5 -68t134 -23q56 0 100 9.5t71 19.5t42 10q16 0 16 -10q0 -4 -4 -9t-10 -10.5t-8 -8.5q-4 -6 -5.5 -25t-9.5 -24q-30 -22 -93 -45.5t-131 -23.5q-59 0 -118 13t-120.5 46t-108 82t-76 127.5
t-29.5 175.5q0 94 30 187q-97 40 -150 92q-33 32 -49.5 59.5t-16.5 42.5q0 17 14 17q4 0 18.5 -5t23.5 -5q16 0 31.5 11.5t21.5 11.5q15 0 29 -14q58 -57 124 -98q73 141 194.5 230t265.5 89q101 0 160.5 -48t59.5 -126q0 -125 -117 -221t-299 -96zM721 697
q-113 0 -208 -73.5t-140 -205.5q107 -48 213 -48q151 0 228.5 48t77.5 138q0 68 -48.5 104.5t-122.5 36.5z" />
    <glyph glyph-name="D.ss01" horiz-adv-x="1049" 
d="M634 -51q-129 0 -259 71q-84 -114 -209 -114q-61 0 -100.5 30t-39.5 81t55 96t137 45q58 0 116 -20q16 58 30 131h-6q-117 0 -198 62.5t-81 151.5q0 127 112 218t301 91q242 0 375 -110.5t133 -280.5q0 -92 -23 -169t-60.5 -128t-85.5 -87t-98 -52t-99 -16zM187 538
q0 -71 48 -112.5t138 -41.5h13q46 221 98 334q-10 1 -31 1q-128 0 -197 -49.5t-69 -131.5zM641 339q-70 -39 -152 -57q-29 -108 -65 -182q44 -21 68.5 -31.5t68.5 -21t88 -10.5q249 0 249 281q0 162 -89.5 263t-243.5 129q-4 -23 -20 -131t-29 -177q62 15 136 42
q28 10 28 -4q0 -6 -9.5 -21t-14.5 -30q-3 -12 -3 -32q0 -11 -12 -18zM105 47q-1 -29 27.5 -48t69.5 -19q66 0 104 80q-77 43 -122 43q-33 0 -56 -16t-23 -40z" />
    <glyph glyph-name="E.ss01" horiz-adv-x="563" 
d="M71 549q0 111 105 190.5t244 79.5q55 0 103 -18.5t48 -40.5q0 -11 -27.5 -26.5t-34.5 -24.5q-3 -4 -10 -14.5t-12 -13.5t-13 -3t-29 14q-51 34 -123 34q-64 0 -100.5 -35t-36.5 -93q0 -96 80 -141q82 38 144 38q61 0 61 -39q0 -35 -44.5 -59t-100.5 -24q-49 0 -95 12
q-85 -82 -85 -179q0 -85 49.5 -129.5t135.5 -44.5q126 0 262 143q9 10 18 10q15 0 15 -35q0 -39 -15 -60q-47 -66 -138 -117.5t-196 -51.5q-111 0 -180 63.5t-69 164.5q0 147 149 256q-105 50 -105 144z" />
    <glyph glyph-name="F.ss01" horiz-adv-x="814" 
d="M206 21q0 -35 31 -71t90 -36q127 0 127 159q0 58 -29.5 181t-29.5 182q0 109 50 212q-22 5 -63.5 17t-66.5 17.5t-47 5.5q-41 0 -65 -27.5t-24 -65.5q0 -70 36 -132q20 -33 20 -40q0 -12 -8.5 -16.5t-19.5 -5.5t-14 -5q-6 -10 -8 -29.5t-4.5 -33t-12.5 -13.5
q-31 0 -57.5 56t-26.5 132q0 107 76.5 192.5t205.5 85.5q31 0 124.5 -25.5t150.5 -25.5q46 0 87 13t64.5 28t41.5 28t23 13q16 0 16 -34q0 -81 -44 -110q-34 -23 -87 -37t-105 -14q-61 0 -121 10q-27 -57 -27 -121q0 -42 30 -150q46 -2 142 27q8 48 28.5 78.5t47.5 30.5
q21 0 35 -16.5t14 -42.5q0 -24 -16.5 -77.5t-16.5 -82.5q0 -3 0.5 -8.5t0.5 -8.5q0 -10 -14.5 -19.5t-18.5 -13.5q-4 -5 -9.5 -14.5t-10.5 -15.5t-10 -6q-19 0 -27 38t-8 82q0 13 1 18q-76 -37 -117 -42q19 -73 19 -131q0 -152 -69.5 -233t-174.5 -81q-103 0 -162 52
t-59 138q0 55 31.5 91.5t74.5 36.5q21 0 35 -7.5t14 -20.5q0 -11 -10.5 -22.5t-21.5 -33t-11 -56.5z" />
    <glyph glyph-name="G.ss01" horiz-adv-x="716" 
d="M558 158q-3 13 -8 35q-8 36 -12 47.5t-10 11.5q-2 0 -4 -1t-4 -4t-4 -5.5t-4.5 -7.5t-4.5 -8.5t-5.5 -10.5l-5.5 -11q-100 -187 -252 -187q-92 0 -157 72t-65 207q0 148 75 280t204.5 212.5t278.5 80.5q77 0 131.5 -24.5t54.5 -48.5q0 -12 -7 -17t-21.5 -11t-24.5 -17
q-22 -22 -31 -22t-28 8q-75 33 -169 33q-71 0 -132.5 -28t-110 -82t-76.5 -141t-28 -197q0 -96 31.5 -152.5t98.5 -56.5q79 0 153.5 93t123.5 262q5 17 35 30.5t54 13.5q23 0 23 -25q0 -3 -12.5 -68t-12.5 -123q0 -57 35 -181q57 40 90 79q18 21 29 21q6 0 8.5 -4.5t4 -15.5
t2.5 -15t6 -12t5 -12q0 -8 -11 -25q-36 -53 -113 -100q10 -47 10 -86q0 -115 -69 -194.5t-167 -79.5q-61 0 -101.5 39t-40.5 90q0 23 4 43.5t14.5 39t20 33t29 30.5t31.5 26t38.5 25.5t39 22.5t43.5 23.5t43 22.5q-20 70 -25 92zM417 -167q0 -35 26.5 -55.5t61.5 -20.5
q46 0 78.5 38t32.5 101q0 37 -12 92q-8 -3 -29 -12.5t-28.5 -13t-25.5 -12t-25.5 -13.5t-21.5 -13.5t-20 -14.5t-15 -15.5t-12.5 -18.5t-6.5 -19.5t-3 -22.5z" />
    <glyph glyph-name="H.ss01" horiz-adv-x="914" 
d="M647 461h26q14 183 47 291q13 44 32 44q11 0 18.5 -12t7.5 -30q0 -11 -2 -34.5t-3 -42.5q-4 -105 -4 -223q73 -10 119.5 -27.5t46.5 -40.5q0 -8 -6.5 -11t-21 -3.5t-19.5 -1.5q-14 -3 -22.5 -20.5t-22.5 -17.5q-9 0 -30 7.5t-43 12.5q1 -48 5 -91.5t11 -90t11.5 -71
t15.5 -78t14 -69.5q2 -11 -2.5 -20.5t-12.5 -9.5q-7 0 -22.5 13.5t-29.5 17.5l-17.5 3.5t-17 4t-12 6t-12 12.5t-8.5 21q-27 87 -27 275q0 29 2 87h-33q-109 0 -209 -19q1 -50 5.5 -123t4.5 -104q0 -95 -32.5 -177t-97.5 -135t-150 -53q-86 0 -139.5 61.5t-53.5 151.5
q0 148 93.5 259.5t248.5 173.5q-1 18 -1 57q0 162 28 308q4 24 20 24q6 0 11 -10t12.5 -27.5t13.5 -27.5q6 -8 22 -12.5t21 -8.5q10 -8 10 -26q0 -5 -3.5 -36t-8 -86.5t-5.5 -116.5q110 26 222 26zM57 12q0 -70 35.5 -112t92.5 -42q80 0 117 45.5t37 139.5q0 44 -12.5 139.5
t-15.5 128.5q-121 -44 -187.5 -122t-66.5 -177z" />
    <glyph glyph-name="I.ss01" horiz-adv-x="507" 
d="M293 -82q-52 -2 -106 -11t-67 -9q-26 0 -53 24.5t-27 47.5q0 16 49 37.5t119 33.5q-11 119 -11 250q-4 181 14 323q1 6 2.5 16.5t1.5 15.5q-155 0 -155 65q0 22 102.5 44t211.5 22q100 0 100 -33q0 -6 -2 -19t-2 -19t6 -14t6 -15q0 -17 -27 -19q-2 0 -26.5 -0.5t-62 -2.5
t-69.5 -5q-3 0 -10 -0.5t-10 -1.5q-5 -93 -5 -175q0 -67 4 -140.5t8 -115t11 -102.5t7 -65h30q81 0 122 -17q23 -9 23 -22q0 -4 -4 -14.5t-4 -15.5q0 -6 9 -21t9 -25q0 -18 -44 -18q-9 0 -37 1t-50 1t-63 -1z" />
    <glyph glyph-name="J.ss01" horiz-adv-x="728" 
d="M429 493q0 81 23 153q-17 1 -50 1q-57 0 -103 -10t-74.5 -27t-44.5 -30t-29 -28q-3 -4 -4 -5q-26 -29 -42 -29q-20 0 -20 21q0 5 4.5 16t4.5 20q0 5 -3 19t-3 19q0 48 94 98t205 50q47 0 115 -9q78 114 192 114q57 0 93 -29t36 -70q0 -57 -48 -93.5t-127 -36.5
q-49 0 -117 5q-8 -37 -8 -73q0 -51 21.5 -108.5t47.5 -102.5t47.5 -113t21.5 -138q0 -73 -22.5 -137.5t-61.5 -111t-88.5 -80t-105 -50.5t-111.5 -17q-124 0 -195 62t-71 170q0 66 27 120t69.5 86t89.5 49t91 17q69 0 113 -33.5t44 -87.5q0 -52 -45 -91.5t-92 -39.5
q-27 0 -27 19q0 10 13.5 20.5t29.5 19t29.5 25.5t13.5 39q0 33 -18 49.5t-60 16.5q-74 0 -128 -48t-54 -120q0 -73 56.5 -114t138.5 -41q113 0 198 60.5t85 160.5q0 40 -23.5 93.5t-52 100t-52 115t-23.5 134.5zM670 787q-51 0 -92 -47q94 -15 125 -15q32 0 32 18
q0 20 -20 32t-45 12z" />
    <glyph glyph-name="K.ss01" horiz-adv-x="1151" 
d="M283 -132q-120 0 -188 61.5t-68 168.5q0 57 25.5 104t64.5 74.5t83 42.5t85 15q71 0 115 -31t44 -86q0 -31 -26 -55.5t-58 -24.5q-27 0 -27 19q0 7 16.5 24t16.5 39q0 52 -80 52q-66 0 -114.5 -37.5t-48.5 -94.5q0 -72 53.5 -112.5t131.5 -40.5q60 0 121.5 27.5
t93.5 72.5q46 62 62 142t16 190q0 73 -16.5 155t-16.5 88q0 16 10 25q6 5 18 10.5t24 16.5q6 6 14 16.5t13.5 15.5t11.5 5q22 0 36 -99t14 -190q48 132 150.5 235t187.5 103q38 0 64.5 -26t26.5 -58q0 -31 -19.5 -53.5t-39.5 -22.5q-35 0 -41 37q-4 28 -31 28
q-44 0 -119.5 -79t-124.5 -191q53 -129 156.5 -249.5t220.5 -183.5q8 -4 20 -10.5t17 -9t11 -6.5t8 -6.5t2 -5.5q0 -9 -19 -15q-6 -2 -38.5 -20t-58.5 -18q-91 0 -207.5 132.5t-178.5 299.5v-3q-21 -141 -100 -278q-53 -91 -133.5 -142t-179.5 -51z" />
    <glyph glyph-name="L.ss01" horiz-adv-x="891" 
d="M216 -198q-85 0 -143 50.5t-58 125.5q0 89 93 164.5t244 75.5q43 0 91 -8q15 126 27 182q12 54 22 91q-103 16 -174.5 69.5t-71.5 123.5q0 13 14 25t19 20q5 9 10.5 29.5t11 34.5t12.5 14q12 0 17 -21q51 -174 188 -217q49 131 123.5 202t169.5 71q56 0 88.5 -29
t32.5 -80q0 -97 -89.5 -167.5t-237.5 -79.5q-3 -14 -11.5 -62.5t-13.5 -76.5q-21 -110 -33 -159q162 -63 297 -208t207 -304q5 -12 5 -22q0 -12 -18.5 -17t-24.5 -12t-11.5 -23.5t-11.5 -27.5t-13 -11q-9 0 -14 10q-210 385 -445 513q-94 -276 -302 -276zM765 748
q-54 0 -87.5 -51.5t-56.5 -147.5q93 4 142.5 43t49.5 100q0 56 -48 56zM115 34q-1 -61 42 -100t105 -39q78 0 114.5 57t54.5 165q-84 29 -174 29q-58 0 -99.5 -32.5t-42.5 -79.5z" />
    <glyph glyph-name="M.ss01" horiz-adv-x="977" 
d="M954 148q22 0 53 27t45 27q24 0 24 -28q0 -21 -17 -45q-46 -63 -127 -63q-86 0 -134.5 71.5t-76.5 205.5q-8 39 -16 89t-12.5 82.5t-11 63t-15.5 45t-22 13.5q-30 -1 -57 -69.5t-45 -175.5q-10 -57 -22.5 -154.5t-17.5 -128.5q-4 -23 -21 -23q-35 0 -48 28t-13 90
q0 11 7 170q5 98 -19 98q-22 -1 -54.5 -71t-58.5 -159q-42 -152 -58 -287q-5 -47 -25 -47q-7 0 -27 15q-31 23 -43.5 48.5t-12.5 67.5q0 46 29.5 156.5t57 236.5t24.5 213q-1 21 -9 28.5t-29 6.5q-33 -2 -87.5 -29t-74.5 -28q-8 0 -15 2.5t-15.5 8t-13.5 7.5q-36 13 -36 23
q-1 10 17.5 22.5t54.5 29.5q105 53 174 55q51 2 77.5 -30.5t26.5 -102.5q0 -58 -11 -141.5t-11 -94.5q0 -17 6 -17q7 0 15 20q15 35 25 55t26 45.5t34.5 38t39.5 13.5q36 2 60 -49q61 198 170 203q26 1 48 -10.5t38.5 -36.5t28.5 -51.5t23 -69.5t17.5 -74.5t15.5 -81.5
q1 -8 5 -32.5t7.5 -42.5t10 -44.5t15 -45t19.5 -36.5t27 -27.5t35 -9.5z" />
    <glyph glyph-name="N.ss01" horiz-adv-x="757" 
d="M712 66q-111 0 -158.5 91.5t-54.5 297.5q-4 120 -11.5 158t-31.5 38q-15 0 -38.5 -26t-52 -82t-53.5 -130.5t-42 -186t-18 -235.5q0 -27 -16 -27q-11 0 -26 10q-38 26 -45 37q-22 29 -22 71q0 118 41.5 349t41.5 260q0 19 -7.5 26t-23.5 7q-42 0 -91 -23.5t-66 -23.5
q-8 0 -14.5 3t-14.5 8.5t-13 7.5q-3 1 -9.5 3t-9.5 3.5t-7.5 4t-6 5.5t-1.5 7q0 10 34 32t88 42t98 20t76 -29.5t32 -95.5q0 -24 -3.5 -63.5t-3.5 -50.5q0 -23 8 -23q10 0 20 20q96 173 177 173q57 0 86 -52.5t34 -161.5q1 -12 2 -48t2 -55.5t3.5 -55t6.5 -57t10 -51
t15 -47.5t21 -35t29 -25t37 -8q22 0 50 27t44 27q28 0 28 -31q0 -18 -17 -42q-46 -63 -127 -63z" />
    <glyph glyph-name="O.ss01" horiz-adv-x="811" 
d="M457 823q104 0 186 -79.5t100 -221.5q19 3 38 7.5t29.5 7.5t13.5 3q16 0 16 -18q0 -5 -4 -12t-11.5 -16.5t-11.5 -18.5q-2 -5 -6 -14t-7 -14.5t-6.5 -12t-7 -10.5t-6.5 -6q-9 -6 -34 -11q-8 -131 -54 -249t-129 -197t-183 -79q-99 0 -174.5 58.5t-113.5 152t-38 205.5
q0 116 37.5 217.5t96.5 167t129.5 103t139.5 37.5zM183 325q0 -87 20.5 -152.5t54 -102t71 -54.5t77.5 -18q63 0 110.5 36.5t74 98t40 129.5t15.5 143q-92 13 -158 64.5t-66 128.5q0 62 33 99.5t91 40.5q-34 26 -81 26q-117 0 -199.5 -114.5t-82.5 -324.5zM501 616
q0 -33 40.5 -59.5t97.5 -35.5q-11 64 -33 104.5t-55 40.5q-24 0 -37 -15t-13 -35z" />
    <glyph glyph-name="P.ss01" horiz-adv-x="680" 
d="M179 204q0 247 55 469q-55 -5 -109.5 -20t-79 -25.5t-70.5 -32.5q-8 -4 -22 -12t-23 -11.5t-18 -3.5q-10 0 -17.5 7t-7.5 19q0 7 4 16.5t11 23.5t10 23q22 54 121.5 89.5t235.5 40.5q24 68 49.5 106.5t43.5 38.5t18 -18q0 -9 -4 -24.5t-13.5 -46t-16.5 -56.5
q137 -11 230.5 -91.5t93.5 -220.5q0 -120 -104.5 -217t-267.5 -110q5 -45 14.5 -97.5t9.5 -56.5q13 -86 13 -89q0 -25 -17 -25q-8 0 -22.5 12t-27.5 16q-5 2 -15 4.5l-14 3.5t-10.5 4.5t-10.5 8.5t-8 13.5t-7 20.5q-24 96 -24 241zM291 297q0 -49 3 -90q126 15 198 76.5
t72 170.5q0 103 -68 158.5t-175 61.5q-30 -173 -30 -377z" />
    <glyph glyph-name="Q.ss01" horiz-adv-x="761" 
d="M361 -78q-129 0 -218 96.5t-89 274.5q0 126 45 246.5t130.5 202t187.5 81.5q128 0 209 -109.5t81 -266.5q0 -208 -100 -359q29 -47 42 -66.5t38.5 -49t49.5 -42.5q12 -6 12 -14q0 -9 -14.5 -15.5t-36.5 -6.5q-79 0 -164 108q-86 -80 -173 -80zM195 312q0 -147 54 -221.5
t141 -74.5q57 0 103 44q-11 17 -24 41t-21.5 39t-18 30t-17 22t-14.5 7q-13 0 -13 -14q0 -15 15 -36t15 -35q0 -21 -24 -21q-19 0 -40.5 32.5t-21.5 61.5q0 36 16.5 59.5t53.5 23.5q76 0 159 -111q50 117 50 291q0 138 -61 222.5t-136 84.5q-51 0 -94 -44t-68.5 -111.5
t-39.5 -143.5t-14 -146z" />
    <glyph glyph-name="R.ss01" horiz-adv-x="828" 
d="M830 -173q-51 -8 -126 30q-101 53 -195 160t-162 249q-24 -164 -24 -315q0 -21 -7 -29.5t-21 -4.5q-17 5 -50 36q-34 29 -34 91q0 76 86 387q-32 -48 -75 -75.5t-81 -27.5q-50 0 -81.5 34.5t-31.5 100.5q0 82 70 159.5t179.5 125t221.5 47.5q140 0 227 -65t87 -160
q0 -137 -98 -214t-252 -86q72 -111 175 -199.5t213 -131.5q38 -15 50 -21t13 -13q2 -14 -20 -25q-19 -10 -34.5 -30.5t-29.5 -22.5zM391 549q-3 -16 -7 -40.5t-11.5 -75t-16.5 -106.5q141 -18 237 38t96 170q0 80 -67.5 133.5t-185.5 53.5q-139 0 -235.5 -74t-89.5 -159
q5 -70 67 -70q65 0 126 117q6 12 21 48t26.5 53t23.5 17q32 0 16 -105z" />
    <glyph glyph-name="S.ss01" horiz-adv-x="715" 
d="M462 788q73 0 104 -33t31 -73q0 -55 -35.5 -100t-80.5 -45q-9 0 -26 1.5t-21 1.5q-6 0 -20 -1.5t-17 -1.5q-19 0 -19 16q0 7 5 11q81 62 81 111q0 38 -45 38q-73 0 -135.5 -51.5t-62.5 -132.5q0 -38 24.5 -65.5t64 -45t87 -34t95 -38.5t87 -51.5t64 -80t24.5 -117.5
q0 -85 -36 -158.5t-94.5 -122.5t-130.5 -77t-144 -28q-120 0 -188.5 56.5t-68.5 154.5q0 54 24 98.5t61 71t78 40.5t80 14q63 0 102.5 -29t39.5 -76q0 -43 -36 -76t-71 -33q-27 0 -27 19q0 10 14 20t28 25.5t14 37.5q0 49 -63 49q-60 0 -104 -34t-44 -86q0 -63 54 -98.5
t132 -35.5q113 0 206 70t93 157q0 48 -24.5 84t-64 58.5t-87.5 42t-96 40.5t-87.5 47.5t-64 70.5t-24.5 102q0 45 23 94t63 92.5t103 72t135 28.5z" />
    <glyph glyph-name="T.ss01" horiz-adv-x="835" 
d="M183 -46q0 -22 10 -48.5t29.5 -53.5t56 -44.5t82.5 -17.5q211 0 211 220q0 70 -43 220.5t-43 221.5q0 97 39 188q-32 7 -77 20.5t-75.5 20.5t-54.5 7q-76 0 -121 -48.5t-45 -115.5q0 -98 107 -141q17 -7 17 -17q0 -14 -12.5 -30t-12.5 -25q0 -11 3.5 -23t3.5 -18
q0 -19 -37 -19q-63 0 -114 56t-51 148q0 75 38.5 150t114 128t166.5 53q57 0 160.5 -25.5t155.5 -25.5q46 0 87 13t64.5 28t41.5 28t23 13q16 0 16 -34q0 -30 -13 -64.5t-31 -45.5q-80 -51 -192 -51q-47 0 -89 6q-18 -48 -18 -101q0 -51 24 -125.5t48.5 -156.5t24.5 -151
q0 -182 -93.5 -278.5t-234.5 -96.5q-129 0 -203.5 67.5t-74.5 179.5q0 84 55.5 139t129.5 55q20 0 34.5 -6.5t14.5 -15.5q0 -7 -12.5 -14.5t-30.5 -18.5t-36 -27.5t-30.5 -48.5t-12.5 -75z" />
    <glyph glyph-name="U.ss01" horiz-adv-x="1030" 
d="M911 357q-3 -209 96 -209q22 0 50 27t44 27q28 0 28 -31q0 -18 -17 -42q-46 -63 -120 -63q-54 0 -99 37t-62 104q-128 -283 -326 -283q-74 0 -126 51t-52 146q0 76 46.5 221.5t46.5 213.5q0 76 -50 129.5t-126 53.5q-60 0 -103.5 -36t-43.5 -88q0 -80 80 -104
q43 -12 79 -12q11 0 26 2t19 2q16 0 16 -15q0 -7 -5.5 -13t-15 -13t-14.5 -14q-24 -32 -46 -44t-59 -12q-77 0 -126 48t-49 135q0 100 75 168t193 68q106 0 182 -69.5t76 -193.5q0 -80 -39.5 -220.5t-39.5 -211.5q0 -116 93 -116q67 0 139 81t128 226q-2 164 31.5 280
t89.5 116q57 0 57 -79q0 -54 -24 -130.5t-52 -136.5z" />
    <glyph glyph-name="V.ss01" horiz-adv-x="975" 
d="M571 419q0 -167 -33 -360q-10 -54 11 -54q31 0 92 89q52 76 85 137t63.5 141.5t45 176t14.5 212.5q0 49 2 52q2 4 8 4q3 0 12 -2t13 -2q9 0 21 18.5t25.5 37.5t27.5 19q24 0 24 -73q0 -104 -24 -209t-58.5 -187.5t-87 -170t-96 -146t-99.5 -125.5q-61 -73 -114 -119.5
t-76 -46.5q-21 0 -21 27q0 3 13.5 87.5t27 211.5t13.5 232q0 159 -67.5 244t-161.5 85q-69 0 -109 -42.5t-40 -109.5q0 -64 35.5 -110t103.5 -46q57 0 57 52q0 16 -10.5 33t-10.5 22q0 23 24 23q21 0 40 -24t19 -56q0 -50 -36 -89.5t-103 -39.5q-86 0 -142.5 58.5
t-56.5 145.5q0 110 73.5 186t179.5 76q132 0 224 -96t92 -262z" />
    <glyph glyph-name="W.ss01" horiz-adv-x="1074" 
d="M412 559q0 -68 -36.5 -204.5t-36.5 -212.5q0 -32 12.5 -58.5t33.5 -26.5q46 0 106.5 84.5t118.5 203.5q-13 76 -13 136q0 61 22.5 99.5t55.5 38.5t56.5 -30t23.5 -79q0 -64 -41 -150q17 -89 52 -155.5t69 -66.5q37 0 57 79t20 226t-30 213q-56 -2 -95 25.5t-39 64.5
q0 27 16 47.5t47 20.5q56 0 106 -72q13 3 38 9t41 9.5t36 6.5t35 3q42 0 62.5 -21t20.5 -49q0 -19 -20 -19q-6 0 -34 5.5t-50 5.5q-29 0 -93 -16q40 -100 40 -234q0 -74 -9 -143.5t-27.5 -132t-52.5 -100.5t-79 -38q-129 0 -190 210q-33 -64 -78.5 -127.5t-106.5 -115.5
t-110 -52q-51 0 -85.5 41.5t-34.5 140.5q0 87 21.5 173.5t43 162t21.5 133.5q0 61 -54 61q-44 0 -104 -28.5t-66 -28.5q-10 0 -12.5 10.5t-6.5 12.5q-10 5 -28 6t-28 5t-10 17q0 28 75.5 66t147.5 38q97 0 144.5 -51t47.5 -143z" />
    <glyph glyph-name="X.ss01" horiz-adv-x="855" 
d="M748 -108q16 -18 31 -31t20.5 -17.5t5.5 -9.5q0 -8 -6.5 -10.5t-14.5 -1.5t-15 -1q-8 -2 -25.5 -16.5t-24.5 -14.5q-12 0 -39 18.5t-52 49.5q-45 55 -85 135.5t-56 172.5q-50 -114 -137 -182t-193 -68q-70 0 -108 30.5t-38 74.5q0 19 15 35t32 16q12 0 22 -12t18 -26.5
t31.5 -26.5t59.5 -12q96 0 178.5 106.5t82.5 278.5q0 171 -58.5 265t-145.5 94q-51 0 -81.5 -26.5t-30.5 -67.5q0 -61 41 -93t98 -41q23 -3 23 -16q0 -11 -7 -14.5t-22 -7t-26 -10.5q-5 -4 -15 -13.5t-17.5 -14.5t-15.5 -5q-66 0 -110 45.5t-44 129.5q0 86 67.5 146
t165.5 60q43 0 84.5 -16.5t79.5 -50t65.5 -94t36.5 -140.5q32 101 98.5 158t149.5 57q45 0 75 -22.5t29 -45.5q0 -9 -4 -15t-8 -7.5t-10.5 -3t-8.5 -2.5q-14 -6 -23.5 -18.5t-17.5 -12.5t-18 12t-25.5 24t-36.5 12q-59 0 -108 -86t-49 -238q0 -243 167 -430z" />
    <glyph glyph-name="Y.ss01" horiz-adv-x="761" 
d="M670 309q-20 -92 -23.5 -245t-5.5 -173q-14 -151 -102.5 -237.5t-238.5 -86.5q-120 0 -188.5 56.5t-68.5 154.5q0 54 24 98.5t61 71t78 40.5t80 14q63 0 102.5 -30.5t39.5 -83.5q0 -39 -33 -69.5t-74 -30.5q-27 0 -27 19q0 10 14 20t28 25.5t14 37.5q0 49 -63 49
q-60 0 -104 -34t-44 -86q0 -63 54 -98.5t132 -35.5q117 0 169.5 51t71.5 156q8 43 11.5 148.5t10.5 164.5q3 24 -4 27t-23 -18q-99 -136 -207 -136q-72 0 -115.5 44t-43.5 121q0 52 25 117.5t54.5 115.5t54.5 103.5t25 84.5q0 48 -22 67.5t-65 19.5q-80 0 -131 -66.5
t-51 -168.5q0 -40 10.5 -85.5t10.5 -54.5q0 -14 -16 -14q-7 0 -20 10.5t-26 14.5q-7 2 -19.5 2t-21 3t-12.5 13q-19 46 -19 100t18.5 106.5t53 97.5t92.5 72.5t129 27.5q85 0 138 -51.5t53 -121.5q0 -45 -23 -102.5t-50.5 -103.5t-50.5 -103t-23 -101q0 -36 18 -57t52 -21
q51 0 95 42t73.5 106.5t50.5 128t37 121.5t22 71q10 21 38 35t55 14q43 -2 43 -25q0 -5 -4.5 -15t-13 -24.5t-11.5 -20.5q-58 -110 -94 -272z" />
    <glyph glyph-name="Z.ss01" horiz-adv-x="682" 
d="M205 -4q-35 0 -82 -34t-72 -34q-45 0 -45 56q0 67 90.5 175.5t238.5 246.5q37 34 107.5 94.5t107 98.5t56.5 77q-82 -41 -148 -41q-36 0 -96.5 11.5t-79.5 11.5q-41 0 -58 -28q-3 -6 -8.5 -20.5t-11.5 -21.5t-17 -7q-16 0 -21 11t-5 36q0 48 47.5 104t114.5 56
q35 0 109 -14t107 -14q88 0 125 40q15 15 30 15q24 0 24 -29q0 -83 -91 -198t-239 -254q-43 -40 -114 -99t-105 -94t-48 -71q71 48 142 48q43 0 80 -16t59 -35t49.5 -35t53.5 -16q33 0 55 24.5t22 69.5q0 34 -17 54.5t-48 20.5q-25 0 -25 19q0 32 45 32t77 -38.5t32 -102.5
q0 -68 -44.5 -114t-139.5 -46q-62 0 -139 30.5t-118 30.5z" />
    <glyph glyph-name="a.ss01" horiz-adv-x="569" 
d="M457 77q-38 32 -70 148q-9 27 -28 2q-39 -56 -88.5 -89.5t-96.5 -33.5q-65 0 -107 45t-42 124q0 107 93 175.5t215 68.5q63 0 101 -17t38 -38q0 -9 -6.5 -16t-15.5 -7q-5 0 -39.5 8t-65.5 8q-93 0 -154 -48t-61 -114q0 -39 21.5 -60t59.5 -21q45 0 98.5 48.5t80.5 121.5
q5 15 20 15q17 0 34 -19.5t21 -48.5q6 -58 33.5 -118.5t61.5 -94.5q6 -6 6 -12q0 -10 -17 -18q-39 -17 -68 -17q-15 0 -24 8z" />
    <glyph glyph-name="a.fina" horiz-adv-x="623" 
d="M385 202q-5 28 -17 28q-11 0 -25 -24q-92 -154 -181 -154q-59 0 -95.5 41.5t-36.5 124.5q0 116 90.5 196t228.5 80q52 0 86 -12q21 -7 35 -46q2 -7 9.5 -16t7.5 -14q0 -13 -15 -13q-11 0 -37 7q3 -62 8.5 -107t16 -88.5t26.5 -70t41 -42.5t59 -16q32 0 58.5 12t42 24.5
t20.5 12.5q8 0 8 -8q0 -6 -3 -19t-3 -18q0 -12 7 -18t7 -17q0 -21 -35 -49.5t-92 -28.5q-83 0 -136.5 63.5t-74.5 171.5zM130 236q0 -92 65 -92q27 0 55.5 32t51 80t37.5 88.5t24 73.5q-40 6 -60 6q-55 0 -96 -26t-59 -72.5t-18 -89.5z" />
    <glyph glyph-name="b.ss01" horiz-adv-x="464" 
d="M438 238q0 -128 -72.5 -221t-156.5 -93q-74 0 -119.5 39t-45.5 104t16 209.5t20 223.5q6 144 6 172q0 30 18 30q21 0 45 -22t25 -50q0 -61 -9 -141t-18.5 -137.5t-9.5 -62.5q0 -17 8 -17q7 0 20 17q72 95 151 95q57 0 89.5 -42t32.5 -104zM270 284q-46 0 -92.5 -50.5
t-46.5 -110.5q0 -48 25.5 -74.5t64.5 -26.5q53 0 89 51.5t36 118.5q0 41 -21 66.5t-55 25.5z" />
    <glyph glyph-name="b.fina" horiz-adv-x="583" 
d="M148 422q0 -131 19 -131q5 0 14 13t21 32t28 38t42 32t56 13q67 0 101 -46.5t34 -99.5v-10q61 -1 111 -18q32 -11 40 -28q2 -4 2 -9t-1 -11.5t-1 -10.5q0 -9 10 -20t10 -18q0 -20 -11 -20q-2 0 -51 18q-56 20 -121 28q-23 -85 -76.5 -135.5t-107.5 -50.5q-34 0 -59.5 27
t-25.5 62q0 69 55.5 117t142.5 63q-4 26 -24.5 47t-52.5 21q-27 0 -49 -13.5t-35.5 -31.5t-26 -48t-18 -50t-13.5 -51q-17 -72 -34 -72q-35 0 -54.5 105.5t-19.5 277.5q0 113 13 250q6 67 33 67q15 0 24 -23.5t22 -23.5q23 0 23 -20q0 -18 -10 -106.5t-10 -163.5zM248 116
q0 -35 42 -35q26 0 48 27.5t34 70.5q-54 -2 -89 -22t-35 -41z" />
    <glyph glyph-name="c.ss01" horiz-adv-x="378" 
d="M339 373q0 -34 -20 -58t-41 -24q-24 0 -32 47q-6 38 -31 38q-36 0 -64 -43.5t-28 -92.5q0 -42 25 -70t80 -28q46 0 80 18q40 20 47 20q10 0 10 -10q0 -7 -5 -19.5t-5 -22.5q0 -4 3 -11t3 -12q0 -21 -38 -51t-97 -30q-75 0 -126 47t-51 142q0 70 37 132.5t82 90.5
q32 21 77 21q39 0 66.5 -26t27.5 -58z" />
    <glyph glyph-name="c.fina" horiz-adv-x="523" 
d="M343 448q0 -28 -17 -48t-35 -20q-16 0 -42.5 17.5t-46.5 17.5q-34 0 -58 -47.5t-24 -118.5q0 -86 49 -143.5t157 -57.5q65 0 117 20t121 62q40 24 47 24q10 0 10 -12q0 -5 -5 -18t-5 -20t6 -13t6 -11q0 -16 -23 -37q-32 -31 -111.5 -67t-164.5 -36q-118 0 -198 70
t-80 212q0 102 37 172.5t89 101.5q35 21 77 21q39 0 66.5 -21.5t27.5 -47.5z" />
    <glyph glyph-name="d.ss01" horiz-adv-x="480" 
d="M474 -33q0 -15 -22 -15q-36 0 -50 28q-25 53 -60 195q-4 17 -13 17q-11 0 -20 -19q-73 -145 -163 -145q-52 0 -88 41.5t-36 113.5q0 64 25.5 116.5t66.5 85.5t89.5 51.5t98.5 20.5q-6 58 -6 96q0 98 23 173t71 75q23 0 38.5 -28.5t15.5 -70.5q0 -88 -56 -231
q5 -133 23 -246.5t26 -139t24 -75.5q13 -41 13 -43zM124 218q0 -42 16.5 -61.5t40.5 -19.5q30 0 56.5 32t41.5 74.5t23.5 78t8.5 50.5q0 4 -2 26q-85 -1 -135 -52t-50 -128z" />
    <glyph glyph-name="d.fina" horiz-adv-x="636" 
d="M579 -43q-76 0 -132 51t-85 138q-94 -109 -185 -109q-63 0 -108.5 44.5t-45.5 124.5q0 115 90.5 186.5t233.5 78.5q18 140 65.5 227t122.5 87q51 0 75.5 -37t24.5 -98q0 -188 -185 -404q37 -170 149 -170q32 0 58.5 12t42 24.5t20.5 12.5q8 0 8 -8q0 -6 -3 -19t-3 -18
q0 -8 7 -15.5t7 -19.5q0 -13 -16 -32.5t-54 -37.5t-87 -18zM433 407q0 -44 4 -83q140 170 140 331q0 64 -42 64q-31 0 -55 -50t-35.5 -120.5t-11.5 -141.5zM126 233q0 -105 84 -105q64 0 134 89q-7 51 -7 91q0 61 4 108q-45 -1 -93 -21t-85 -63.5t-37 -98.5z" />
    <glyph glyph-name="e.ss01" horiz-adv-x="368" 
d="M334 46q-8 -9 -22 -19.5t-41.5 -21.5t-54.5 -11q-80 0 -128.5 50t-48.5 149q0 108 61.5 186t124.5 78q46 0 75 -27t29 -75q0 -56 -37 -100.5t-83 -44.5q-43 0 -83 30q-2 -20 -2 -30q0 -40 24 -64t70 -24q36 0 69 13.5t53.5 27t26.5 13.5q8 0 8 -8t-15 -29.5t-15 -33.5
q0 -3 3 -13t3 -17q0 -10 -17 -29zM211 366q-23 0 -43 -23t-32 -60q24 -15 52 -15q23 0 39.5 20.5t16.5 44.5q0 33 -33 33z" />
    <glyph glyph-name="f.ss01" horiz-adv-x="307" 
d="M62 253q0 51 5 107t19.5 124t36.5 120.5t60.5 88.5t87.5 36q33 0 56 -15.5t23 -35.5q0 -13 -9 -23.5t-20 -10.5q-7 0 -27.5 4.5t-32.5 4.5q-96 0 -103 -240q24 2 35 2q94 0 94 -29q0 -4 -2 -15t-2 -16q0 -4 3 -10t3 -12q0 -13 -16 -13q-1 0 -10 0.5t-20.5 1t-28 0.5
t-30.5 -1q-4 0 -12.5 -0.5t-12.5 -0.5q5 -194 35 -304q4 -14 8 -26t6 -18.5t4 -12t2.5 -8.5t0.5 -5q0 -12 -15 -12q-5 0 -13 2q-11 4 -27.5 6t-27.5 3.5t-22.5 10t-18.5 25.5q-29 86 -29 272z" />
    <glyph glyph-name="f.fina" horiz-adv-x="360" 
d="M280 -65q0 -78 -37 -135.5t-86 -57.5q-51 0 -87 77.5t-36 200.5q0 238 51 507q22 120 63 186t95 66q88 0 88 -133q0 -70 -64 -167t-134 -142q-8 -68 -11 -100q57 31 129.5 56.5t111.5 25.5q16 0 21 -6t6.5 -19t5.5 -19q16 -32 16 -38q0 -30 -58 -39q-81 -14 -172 -43
q41 -45 69.5 -104t28.5 -116zM261 698q-28 0 -59 -59t-48 -162q46 27 85.5 82.5t39.5 105.5q0 33 -18 33zM108 -3q0 -157 49 -157q20 0 35 18.5t15 48.5q0 42 -29.5 95t-67.5 80q-2 -60 -2 -85z" />
    <glyph glyph-name="g.ss01" horiz-adv-x="507" 
d="M364 325q34 0 76 -73.5t42 -171.5q0 -61 -12 -116t-38 -103.5t-72.5 -77.5t-109.5 -29q-72 0 -112 28q-19 14 -14 29q5 14 30 14q11 0 41 -7.5t48 -7.5q68 0 103.5 70t35.5 176q0 42 -10 87t-26 45q-7 0 -23 -19.5t-34.5 -42.5t-53.5 -42.5t-75 -19.5q-51 0 -92 40.5
t-41 108.5q0 56 25 101t64 71t81.5 40t82.5 14q45 0 76 -13t31 -31q0 -9 -6.5 -16t-15.5 -7q-4 0 -20 2t-23 2q-86 5 -138 -38t-52 -105q0 -34 16 -52.5t45 -18.5q34 0 74.5 39.5t71.5 103.5q10 20 25 20z" />
    <glyph glyph-name="g.fina" horiz-adv-x="605" 
d="M712 131q-74 -92 -229 -138q-9 -116 -77 -187t-158 -71q-50 0 -88.5 31t-38.5 86q0 45 41 82.5t110 63.5q47 18 133 46q-8 154 -30 154q-7 0 -14 -11q-79 -123 -185 -123q-65 0 -107 45t-42 124q0 116 93 190t215 74q74 0 131.5 -26.5t57.5 -51.5q0 -7 -5 -12.5t-14 -5.5
q-1 0 -54.5 17t-103.5 17q-93 0 -154 -54t-61 -128q0 -39 21.5 -60t59.5 -21q39 0 85.5 48t73.5 122q6 15 21 15q16 0 31.5 -19.5t22.5 -48.5q30 -127 36 -214q94 42 173 116q23 21 29 21q7 0 10 -5t5 -18t3 -17t8 -12t7 -12q0 -9 -6 -17zM218 -133q0 -20 18 -32.5t39 -12.5
q123 0 131 150q-86 -21 -114 -30q-74 -24 -74 -75z" />
    <glyph glyph-name="h.ss01" horiz-adv-x="503" 
d="M377 -19q-18 28 -29.5 69t-17 75t-17.5 124q-5 34 -30 34q-34 0 -62 -87.5t-42 -192.5q-3 -17 -26 -17q-28 0 -57 21.5t-30 50.5q-5 135 -5 255q0 196 45 311t119 115q43 0 65.5 -33.5t22.5 -89.5q0 -81 -46 -159t-129 -139q1 -20 2.5 -55.5t1.5 -51.5q2 -19 9 -19
q8 0 19 28q28 72 60 112t76 40q57 0 82 -46q10 -18 19 -77t25 -121.5t45 -98.5q10 -13 22 -21.5t18 -12t6 -8.5q0 -9 -19 -15q-9 -4 -22.5 -11.5t-26 -11.5t-29.5 -4q-26 0 -49 36zM136 436v-1q52 22 86.5 61t34.5 93q0 27 -11.5 44t-31.5 17q-33 0 -55.5 -55t-22.5 -159z
" />
    <glyph glyph-name="h.fina" horiz-adv-x="581" 
d="M397 286q17 -132 45.5 -183.5t101.5 -51.5q32 0 58.5 12.5t42 24.5t20.5 12q8 0 8 -8q0 -4 -3 -14t-3 -13q0 -9 7 -14t7 -16q0 -7 -10 -20t-28 -27.5t-50 -25t-69 -10.5q-52 0 -92 22t-64 59.5t-37.5 77.5t-19.5 87q-2 16 -4 34.5t-3 29t-3 20t-4.5 13.5t-6.5 4
q-30 0 -67 -93t-37 -200q0 -2 0.5 -10t0 -13.5t-0.5 -13.5t-2 -14t-4.5 -11.5t-7 -8.5t-10.5 -3q-19 0 -43 22.5t-29 49.5q-29 157 -29 309q0 234 59.5 353t138.5 119q50 0 74 -34.5t24 -91.5q0 -90 -68 -191t-152 -153q2 -73 5 -104q3 -24 11 -24q13 0 39 62q29 72 63 111
t67 39q27 0 43.5 -19.5t21.5 -39.5t10 -54zM136 436v-17q60 28 102.5 81.5t42.5 122.5q0 34 -13.5 51t-34.5 17q-36 0 -66.5 -67.5t-30.5 -187.5z" />
    <glyph glyph-name="i.ss01" horiz-adv-x="232" 
d="M56 662q0 13 19.5 19.5t54 16t58.5 26.5q20 14 25 14q9 0 15.5 -8.5t6.5 -18.5q0 -4 -1.5 -11.5t-1.5 -10.5q0 -5 6 -11.5t6 -11.5q0 -25 -26.5 -47.5t-57.5 -22.5q-35 0 -69.5 20.5t-34.5 45.5zM91 1q-29 80 -29 252q0 91 11.5 153.5t29.5 62.5q8 0 14 -15.5t11 -20.5
q1 -1 12 -6.5t14.5 -14.5t3.5 -30q0 -216 36 -346q5 -17 9.5 -31t6.5 -19.5t3.5 -10t1.5 -7.5q0 -15 -16 -15q-5 0 -24 8q-7 2 -27 3t-34 8.5t-23 28.5z" />
    <glyph glyph-name="i.fina" horiz-adv-x="294" 
d="M36 611q0 26 68 64t113 38q27 0 27 -29q0 -38 -42 -86t-83 -48q-31 0 -57 19t-26 42zM125 299q0 -83 40.5 -122.5t91.5 -39.5q46 0 80 18q45 22 48 22q9 0 9 -10q0 -6 -6.5 -19.5t-6.5 -23.5q0 -4 4.5 -11.5t4.5 -12.5q0 -24 -43.5 -52.5t-114.5 -28.5q-81 0 -135 54.5
t-54 160.5q0 74 20 148.5t39 74.5q15 0 23.5 -15t8.5 -31q0 -3 -4.5 -45t-4.5 -67z" />
    <glyph glyph-name="j.ss01" horiz-adv-x="232" 
d="M46 637q0 34 48 81.5t86 47.5q20 0 32 -13.5t12 -28.5q0 -6 -1 -14t-1 -11q0 -9 13 -19t13 -19q0 -20 -29 -20q-54 0 -109 -25q-26 -12 -33 -12q-10 0 -20.5 11t-10.5 22zM107 -227q-8 -22 -22 -29.5t-34.5 -8t-27.5 -3.5q-23 -8 -28 -8q-12 0 -12 14q0 3 2 8.5t7.5 23
t11.5 38.5q70 256 70 550q0 9 -0.5 28.5t-0.5 29.5q0 32 14 32q31 0 56 -67.5t25 -174.5q0 -101 -17 -227t-44 -206z" />
    <glyph glyph-name="j.fina" horiz-adv-x="337" 
d="M46 602q0 13 19.5 19.5t58 19t69.5 33.5q5 4 10 4q13 0 22 -26t9 -46q0 -26 -26.5 -48t-57.5 -22q-35 0 -69.5 20.5t-34.5 45.5zM426 104q-64 -87 -223 -124q-10 -113 -77.5 -182t-156.5 -69q-50 0 -88.5 31t-38.5 86q0 45 41 82.5t110 63.5q32 12 113 39
q-34 214 -37 257q-5 67 5 108q5 22 30.5 37.5t45.5 15.5q18 0 24 -8t6 -27v-72q0 -42 10.5 -143.5t12.5 -130.5q96 43 174 117q23 21 29 21q7 0 10 -5t5 -18t3 -17q1 -3 8.5 -12.5t7.5 -16.5q0 -14 -14 -33zM117 -65q0 6 -2 26q-79 -17 -102 -25q-74 -24 -74 -75
q0 -20 18 -32.5t39 -12.5q49 0 85 30.5t36 88.5z" />
    <glyph glyph-name="k.ss01" horiz-adv-x="429" 
d="M171 52q0 -40 -28 -40q-18 0 -37 12t-25 33q-31 109 -31 317q0 176 47.5 291t124.5 115q81 0 81 -118q0 -81 -49 -168t-123 -134q3 -112 14 -182q21 103 81 190t108 87q23 0 35 -15.5t12 -35.5q0 -17 -5 -30.5t-11 -20.5t-18 -12t-18 -6.5t-19.5 -3t-14.5 -1.5
q-29 -3 -55 -31q14 -62 69 -131t114 -106q9 -6 18.5 -11t16 -8.5t12.5 -7t8.5 -6t2.5 -5.5q0 -9 -19 -15q-11 -4 -26 -12.5t-28.5 -12.5t-33.5 -4q-34 0 -87.5 50.5t-102.5 149.5q-13 -58 -13 -128zM130 488v-27q49 30 77 71t28 86q0 32 -13 50t-34 18q-58 0 -58 -198z" />
    <glyph glyph-name="k.fina" horiz-adv-x="521" 
d="M186 -14q0 -14 -9.5 -21.5t-22.5 -7.5q-19 0 -37 14t-26 42q-41 148 -41 361q0 81 11.5 153t34 131.5t62 94.5t91.5 35q38 0 62 -34.5t24 -86.5q0 -96 -60.5 -185.5t-154.5 -142.5q4 -57 12 -108q44 75 102.5 120.5t103.5 45.5q25 0 37 -17.5t12 -37.5q0 -30 -15.5 -49
t-38.5 -19q-14 0 -35 8t-25 8q-37 3 -65 -46q29 -66 86.5 -103t116.5 -37q39 0 74.5 18.5t56.5 40t40.5 40t31.5 18.5q7 0 7 -9q0 -1 -4.5 -14.5t-4.5 -24.5q0 -4 3.5 -14t3.5 -16q0 -11 -16.5 -32.5t-44 -45t-72.5 -41t-94 -17.5q-75 0 -132.5 40.5t-90.5 110.5
q-1 -2 -6 -15t-9 -19q26 -103 31 -128q1 -4 1 -10zM117 436v-24q52 27 97.5 90t45.5 121q0 27 -13.5 42t-35.5 15q-37 0 -65.5 -61.5t-28.5 -182.5z" />
    <glyph glyph-name="l.ss01" horiz-adv-x="299" 
d="M233 813q35 0 59.5 -37t24.5 -92q0 -64 -35 -137q-31 -62 -71.5 -108t-76.5 -62v-44q0 -80 9 -143t21.5 -97t25 -56t21.5 -32.5t9 -14.5q0 -13 -17.5 -26t-39.5 -13q-109 0 -109 271q0 137 21 270.5t63 227t95 93.5zM222 715q-24 0 -45 -50t-33 -144q46 21 79.5 63
t33.5 84q0 22 -10 34.5t-25 12.5z" />
    <glyph glyph-name="l.fina" horiz-adv-x="360" 
d="M270 -11q-105 0 -160.5 69.5t-55.5 202.5q0 87 12.5 182.5t35 178.5t57 137t74.5 54q45 0 76 -42.5t31 -104.5q0 -110 -66 -223.5t-138 -155.5q8 -92 48.5 -136t96.5 -44q67 0 140 47q21 13 28 13q11 0 11 -10q0 -6 -6 -20t-6 -22q0 -5 4 -13t4 -12q0 -28 -58.5 -64.5
t-127.5 -36.5zM222 715q-20 0 -38 -34t-32 -109t-17 -179q56 35 95 107.5t39 144.5q0 33 -13.5 51.5t-33.5 18.5z" />
    <glyph glyph-name="m.ss01" horiz-adv-x="721" 
d="M112 401q21 0 38.5 -20.5t17.5 -37.5q0 -16 -3.5 -45t-3.5 -37q0 -18 10 -18q4 0 22 44t49 88t68 44q33 0 59.5 -25.5t26.5 -75.5q0 -22 -3 -52t-6.5 -55.5t-6.5 -48.5t-3 -36.5t5 -13.5q4 0 10 20t19 61t27 76q29 72 65.5 127.5t64.5 61.5q14 3 25 3q25 0 37 -12t12 -52
q0 -19 -1 -80.5t-1 -95.5q8 -158 53 -212q16 -18 16 -32q0 -12 -8.5 -22t-25.5 -10q-59 0 -101.5 91t-42.5 234q0 22 -7 22q-6 0 -15 -18q-20 -44 -42 -104.5t-40.5 -116.5t-24.5 -71q-6 -14 -21 -14q-23 0 -46.5 22.5t-23.5 49.5q0 34 9.5 129t9.5 124q0 59 -31 59
q-29 0 -69.5 -92.5t-75.5 -240.5q-6 -25 -33 -25q-25 0 -47 21t-22 53q0 60 18 196.5t42 136.5z" />
    <glyph glyph-name="m.fina" horiz-adv-x="786" 
d="M630 258q0 -185 119 -185q46 0 80 18q40 20 49 20q8 0 8 -8t-5 -21t-5 -23q0 -4 3 -11t3 -12q0 -26 -45.5 -53.5t-112.5 -27.5q-88 0 -137.5 67.5t-49.5 205.5q0 30 2 58t2 33q0 28 -18 28q-36 0 -69.5 -96t-57.5 -218q-4 -25 -28 -25q-19 0 -41 26.5t-22 56.5v132
q0 59 -31 59q-29 0 -69 -87t-72 -222q-6 -25 -30 -25q-22 0 -41.5 20.5t-19.5 52.5q0 91 23.5 252t54.5 161q8 0 16 -13.5t15 -18.5q5 -4 10 -7l7.5 -4.5t5 -3.5t3.5 -6t1 -11q0 -18 -8.5 -57t-8.5 -52q0 -18 10 -18q3 0 13 16.5t22.5 36.5t33.5 36.5t45 16.5q30 0 58 -26
t28 -75q0 -85 5 -85q2 0 5.5 13t11.5 40.5t19 53.5q28 69 71 113.5t89 44.5q59 0 59 -73q0 -4 -0.5 -36t-0.5 -61z" />
    <glyph glyph-name="n.ss01" horiz-adv-x="498" 
d="M54 327q-3 31 -7.5 67.5t-5.5 42.5q-1 15 12 16q4 1 11.5 -4.5t8.5 -5.5q20 -2 23 -5q20 -18 26 -84q2 -22 13 -22q7 0 17 12q68 84 133 84q48 0 81 -45.5t54 -159.5q2 -8 8 -43t9 -49t10 -38.5t16 -39t21 -24.5q13 -11 28.5 -18.5t22.5 -11.5t7 -8q0 -9 -19 -15
q-13 -5 -29.5 -15t-32 -15.5t-37.5 -5.5q-38 0 -61 33q-17 25 -25.5 66t-16 107t-15.5 107q-19 94 -56 94q-17 0 -40 -20.5t-39 -51.5q-8 -17 -15 -36t-12 -39.5t-8.5 -36.5t-6.5 -38.5t-4.5 -33t-4 -32t-2.5 -25.5q-3 -35 -23 -35q-23 0 -36 15.5t-15 38.5q-2 22 5.5 128.5
t4.5 145.5z" />
    <glyph glyph-name="n.fina" horiz-adv-x="581" 
d="M277 437q25 0 45.5 -10.5t33.5 -25.5t24 -41t17 -47.5t14 -54.5q23 -106 36 -135q31 -72 97 -72q32 0 58.5 12.5t42 24.5t20.5 12q8 0 8 -8q0 -4 -3 -14t-3 -13q0 -10 7 -15.5t7 -11.5q0 -12 -16 -31t-54 -37t-87 -18q-154 0 -198 201q-5 24 -10 59.5t-8 59t-9 47t-16 35
t-25 11.5q-35 0 -68.5 -71t-46.5 -192q-3 -34 -23 -35q-23 -2 -46 15.5t-25 38.5q-1 12 3 87t2 99l-4.5 45t-2.5 32q-1 21 18 21q13 0 31.5 -6.5t25.5 -13.5q10 -11 14 -48q2 -13 7 -13q7 0 15 18q47 95 119 95z" />
    <glyph glyph-name="o.ss01" horiz-adv-x="437" 
d="M499 254q-57 -48 -129 -60q-19 -67 -65.5 -111t-111.5 -44q-67 0 -111.5 43t-44.5 129q0 69 42 123.5t100 65.5q21 4 34 -2q20 27 55 27q43 0 75 -39.5t39 -87.5q71 17 125 55q12 9 21 9t9 -9q0 -5 -2.5 -11.5t-7.5 -17t-8 -18.5q-1 -3 -2 -14.5t-5 -20.5t-13 -17z
M262 335q0 -18 15.5 -31.5t34.5 -13.5h8q-11 68 -38 68q-20 0 -20 -23zM124 232q0 -54 24.5 -83.5t59.5 -29.5q29 0 55.5 19.5t42.5 52.5q-57 7 -86 47t-29 100q0 4 2 16q-30 -12 -49.5 -46.5t-19.5 -75.5z" />
    <glyph glyph-name="o.fina" horiz-adv-x="517" 
d="M615 269q-92 -77 -253 -81q-22 -74 -67 -117.5t-107 -43.5q-57 0 -99.5 43t-42.5 128q0 42 17 81q-40 51 -40 127q0 74 44 122t121 48q88 0 140.5 -69.5t52.5 -185.5q0 -18 -1 -27q160 16 243 74q12 9 21 9t9 -9q0 -5 -2.5 -11.5t-7.5 -17t-8 -18.5q-1 -3 -2 -14.5
t-5 -20.5t-13 -17zM94 441q0 -69 48.5 -110t157.5 -41h10v1q0 116 -44.5 170t-104.5 54q-30 0 -48.5 -19.5t-18.5 -54.5zM128 212q0 -44 20.5 -72t49.5 -28q64 0 95 75q-98 2 -164 37q-1 -4 -1 -12z" />
    <glyph glyph-name="p.ss01" horiz-adv-x="504" 
d="M171 106q0 36 16 59.5t46 23.5q17 0 24.5 -13t8 -29t8 -29t24.5 -13q35 0 60 44t25 116q0 55 -24 85t-68 30q-59 0 -108 -65.5t-49 -197.5q0 -79 12 -181.5t26 -160.5q16 -60 -5 -60q-9 0 -24 12.5t-23 12.5q-4 0 -9 -3t-9 -3q-19 0 -36.5 92t-24.5 239t1 329
q2 27 7.5 36.5t20.5 9.5q26 0 43 -16t17 -44q0 -26 11 -26q9 0 22 17q76 103 166 103q72 0 109.5 -51.5t37.5 -119.5q0 -119 -70 -200.5t-148 -81.5q-36 0 -61.5 24t-25.5 61z" />
    <glyph glyph-name="p.fina" horiz-adv-x="554" 
d="M126 -236q1 -24 -10 -40t-25 -16q-18 0 -45 23t-27 57q0 46 3.5 93t10.5 124.5t12 144.5q17 292 17 340q0 30 18 30q47 0 57 -54q3 -17 3 -96q0 -27 8 -27q5 0 19 17q30 39 69.5 61.5t79.5 22.5q42 0 71 -25t40 -56.5t11 -64.5v-8q60 -2 107 -19t47 -36q0 -4 -1.5 -12
t-1.5 -12q0 -9 10 -20t10 -18q0 -9 -7 -9q-2 0 -51 18q-57 20 -123 27q-21 -89 -75.5 -142.5t-110.5 -53.5q-34 0 -59.5 27t-25.5 62q0 72 54 117.5t134 62.5v2q0 23 -18 44.5t-49 21.5q-41 0 -85 -49t-59 -129q-16 -85 -8 -408zM221 144q0 -26 33 -26q26 0 48.5 27t33.5 70
h-6q-40 0 -74.5 -23.5t-34.5 -47.5z" />
    <glyph glyph-name="q.ss01" horiz-adv-x="475" 
d="M429 -223q2 -11 4.5 -21.5t4 -15.5t1.5 -8q0 -13 -11 -13t-22.5 17t-17.5 17q-4 0 -7.5 -2t-6.5 -2q-15 0 -20 21q-6 29 -12.5 76.5t-10.5 84.5t-11.5 110t-11.5 105q-3 21 -10 21t-16 -16q-28 -53 -66 -88t-78 -35q-51 0 -87.5 41t-36.5 112q0 88 46.5 154t113.5 95.5
t140 26.5q19 76 63 76q27 0 50 -23t23 -64q0 -45 -50 -165q-6 -108 1.5 -249.5t27.5 -254.5zM120 206q0 -36 15 -55.5t38 -19.5q30 0 56.5 33t41.5 76.5t23.5 80t8.5 51.5q0 9 2 35q-77 -5 -131 -59t-54 -142z" />
    <glyph glyph-name="q.fina" horiz-adv-x="681" 
d="M510 -238q-10 -33 -29 -33q-18 0 -38.5 16.5t-27.5 40.5q-44 149 -37 398q0 11 -7 11q-5 0 -10 -8q-79 -123 -185 -123q-65 0 -107 45t-42 124q0 116 93 190t215 74q71 0 130 -24.5t59 -48.5q0 -23 -19 -23q-7 0 -27 8q-67 26 -131 26q-93 0 -154 -54t-61 -128
q0 -39 21.5 -60t59.5 -21q45 0 98.5 48.5t80.5 121.5q6 15 21 15q18 0 36 -20.5t18 -47.5q0 -6 -3.5 -31.5t-7.5 -70.5t-4 -98q0 -123 15 -210q21 69 69 141.5t90.5 114.5t59.5 42q11 0 13 -7.5t-2 -26t-4 -26.5q0 -6 9.5 -12.5t9.5 -14.5q0 -17 -18 -33
q-123 -108 -184 -295z" />
    <glyph glyph-name="r.ss01" horiz-adv-x="414" 
d="M191 52q0 -38 -24 -38q-19 0 -40 10t-24 26q-22 95 -35 234q-11 104 -11 182q0 53 25 53q24 0 52.5 -26t28.5 -60q0 -43 -1 -89.5t-1 -54.5q0 -31 12 -31q7 0 14 12.5t23.5 45t36.5 63.5q49 76 99 76q32 0 47 -19t15 -44q0 -65 -90 -76q-27 -2 -54.5 -27.5t-45.5 -72.5
q-27 -70 -27 -164z" />
    <glyph glyph-name="r.intr" horiz-adv-x="400" 
d="M285 234q0 -101 63 -101q29 0 56 19t48.5 38t38.5 19t17 -21q0 -34 -54 -98q-60 -69 -134 -69q-60 0 -97.5 49.5t-37.5 141.5q0 14 2.5 60.5t2.5 57.5q0 46 -38 60q-31 -80 -79 -125q-4 -3 -10 -9t-8.5 -8t-7.5 -5.5t-9 -4.5t-10 -1q-18 0 -32 16t-14 35q0 18 16 27
q68 36 94 115q-48 23 -48 75q0 32 11.5 62.5t35.5 30.5q14 0 25.5 -21.5t23 -49t20.5 -36.5q4 -4 42 -27.5t62.5 -53t24.5 -68.5q0 -26 -2 -59t-2 -49z" />
    <glyph glyph-name="r.fina" horiz-adv-x="479" 
d="M238 215q0 19 1 58.5t1 56.5q0 25 -14.5 39.5t-47.5 29.5q-30 -211 -118 -293q-19 -18 -35 -18q-23 0 -23 37q0 24 10 34q108 111 115 281q-33 25 -33 76q0 16 3 32.5t14.5 33t29.5 16.5q17 0 38.5 -49.5t30.5 -57.5q2 -2 25 -15.5t43.5 -29t38.5 -44t18 -60.5
q0 -11 -1.5 -42t-1.5 -62q0 -92 38.5 -133.5t104.5 -41.5q30 0 62 13.5t34 13.5q10 0 8 -10q-1 -7 -7.5 -23t-6.5 -20q0 -5 4.5 -10.5t4.5 -11.5t-7.5 -16t-21.5 -22t-40 -20.5t-58 -8.5q-102 0 -155.5 72.5t-53.5 194.5z" />
    <glyph glyph-name="r_intr.fina" horiz-adv-x="429" 
d="M524 15q0 -6 -7.5 -16t-21.5 -22t-40 -20.5t-58 -8.5q-102 0 -155.5 72.5t-53.5 194.5q0 19 1 58.5t1 56.5q0 36 -40 59q-33 -88 -98 -143q-10 -9 -24 -9q-18 0 -32 16t-14 35q0 18 16 27q68 36 94 115q-48 25 -48 86q0 16 3 32.5t14.5 33t29.5 16.5q17 0 38.5 -49.5
t30.5 -57.5q2 -2 25 -15.5t43.5 -29t38.5 -44t18 -60.5q0 -11 -1.5 -42t-1.5 -62q0 -92 38.5 -133.5t104.5 -41.5q30 0 62 13.5t34 13.5q10 0 8 -10q-1 -7 -7.5 -23t-6.5 -20q0 -5 4.5 -10.5t4.5 -11.5z" />
    <glyph glyph-name="s.ss01" horiz-adv-x="390" 
d="M323 502q17 0 29 -17.5t12 -34.5q0 -15 -6 -20t-28 -8q-43 -4 -77.5 -32t-34.5 -62q0 -16 13.5 -27.5t41.5 -25.5t41 -24q43 -30 43 -81q0 -61 -71.5 -117t-144.5 -56q-11 0 -16 6.5t-15 6.5q-61 0 -61 19q0 8 6 11.5t22.5 7t19.5 4.5q46 14 92.5 49.5t46.5 78.5
q0 17 -14 29.5t-41 27t-39 23.5q-31 24 -31 61q0 74 88 135q65 46 124 46z" />
    <glyph glyph-name="s.intr" horiz-adv-x="352" 
d="M259 545q29 0 43 -14t14 -34q0 -31 -63 -77q6 -26 30.5 -98t24.5 -111q0 -65 -47 -110t-107 -45q-47 0 -87.5 28t-40.5 56q0 34 28 34q6 0 17 -12t29.5 -24.5t41.5 -12.5q31 0 48 23t17 60q0 46 -41 141q-46 -60 -107 -100q-11 -8 -25 -8q-18 0 -32 15t-14 32q0 18 17 27
q60 32 86.5 56.5t46.5 58.5v9q0 51 40.5 78.5t80.5 27.5z" />
    <glyph glyph-name="s.fina" horiz-adv-x="447" 
d="M268 551q56 0 56 -48q0 -27 -16 -53.5t-55 -66.5q9 -49 52.5 -141t50.5 -111q36 2 57 2q56 0 108 -7q16 -2 24.5 -9.5t8.5 -17.5q0 -18 -28 -18q-8 0 -24 0.5t-23 0.5q-62 0 -106 -4q8 -35 8 -65q0 -80 -63.5 -135.5t-144.5 -55.5q-61 0 -98 34t-37 90q0 54 60 101
t160 70q-8 19 -25.5 54.5t-30.5 65.5t-22 58q-27 -61 -60.5 -112t-59.5 -74q-19 -18 -35 -18q-23 0 -23 37q0 21 10 31q95 96 150 220q-1 7 -1 22q0 66 34.5 108t72.5 42zM136 -44q0 -33 22 -49t49 -16q38 0 62 26t24 66q0 35 -15 80q-142 -32 -142 -107z" />
    <glyph glyph-name="s_intr.fina" horiz-adv-x="351" 
d="M5 315q50 26 80 64t37 67t17.5 50t27.5 21q34 0 63 -72q3 -7 21 -53t23.5 -61t19 -54.5t18.5 -63t10 -56t5 -61.5q0 -109 -67 -178.5t-155 -69.5q-64 0 -102.5 36t-38.5 96q0 48 42 84.5t103 36.5q18 0 30.5 -6.5t12.5 -15.5q0 -17 -28 -23q-31 -7 -45 -21t-14 -41
q0 -31 22 -47t48 -16q45 0 71 38.5t26 109.5q0 106 -72 264q-53 -62 -101 -94q-11 -8 -25 -8q-18 0 -32 15t-14 32q0 18 17 27z" />
    <glyph glyph-name="t.ss01" horiz-adv-x="261" 
d="M-8 536q0 40 114 76q37 177 73 177q12 0 12 -17q0 -9 -18 -143q69 14 120 13q27 0 27 -35q0 -22 -17.5 -41.5t-17.5 -23.5q0 -6 5.5 -13.5t5.5 -11.5q0 -11 -19 -13q-60 -4 -120 -17q-5 -65 -5 -119q0 -100 9 -188.5t17.5 -141.5t8.5 -66q0 -30 -17 -30q-6 0 -11 6
t-9 13.5t-12 14.5t-19 8q-47 5 -47 324q0 75 11 163q-12 -1 -25 2q-6 2 -12 7t-14.5 14t-12.5 13q-4 3 -12 9.5t-11.5 10.5t-3.5 9z" />
    <glyph glyph-name="t.fina" horiz-adv-x="429" 
d="M72 308q0 76 11 162h-7q-25 0 -48.5 24t-23.5 48q0 39 103 72q31 139 60 139q12 0 12 -17q0 -21 -7 -105q94 19 188 15q23 -1 34 -12t11 -27t-12.5 -36.5t-12.5 -25.5q0 -6 2 -12.5t2 -9.5q0 -14 -48 -17q-108 -7 -174 -19q-4 -84 -4 -125q0 -225 133 -225q45 0 93 24
q27 14 36 14q8 0 8 -8q0 -7 -5.5 -20t-5.5 -22q0 -5 3.5 -13t3.5 -12q0 -25 -43.5 -53t-114.5 -28q-90 0 -142 73t-52 216z" />
    <glyph glyph-name="u.ss01" horiz-adv-x="495" 
d="M323 194q-9 -20 -13.5 -29.5t-19.5 -35t-29 -39t-36.5 -26t-46.5 -12.5q-63 0 -94 48t-31 130q0 66 22.5 127t53.5 61q18 0 36.5 -19.5t18.5 -40.5q0 -2 -9 -49.5t-9 -87.5q0 -83 45 -83q15 0 30.5 16.5t31 49t25 56.5t23.5 62q10 28 22 40.5t31 12.5q44 0 44 -55v-36.5
v-40t1 -37t3.5 -39t7.5 -34t11.5 -34.5t17 -28t24.5 -27q5 -4 5 -9q0 -11 -17 -13q-11 -1 -18 -7t-14 -6q-42 0 -65 53.5t-27 129.5q-1 21 -8 21t-16 -19z" />
    <glyph glyph-name="v.ss01" horiz-adv-x="434" 
d="M149 373q25 -49 38.5 -131t14.5 -136q110 143 110 217q0 8 -2 22t-2 23q0 33 14.5 59.5t39.5 26.5q17 0 31.5 -16t14.5 -43q0 -62 -32.5 -135t-80.5 -135t-77 -95t-48 -51q-22 -20 -40 -20q-26 0 -26 40q0 7 1.5 32.5t1.5 33.5q0 106 -35 222q-6 20 -15.5 46.5t-14 41
t-4.5 21.5q0 23 36 23q52 0 75 -46z" />
    <glyph glyph-name="v.fina" horiz-adv-x="607" 
d="M684 393q-33 -58 -99.5 -106t-144.5 -48q-5 -113 -64.5 -196t-158.5 -83q-79 0 -131.5 74.5t-52.5 207.5q0 106 31 183q12 29 27 29q9 0 13.5 -6.5t8.5 -21t10 -23.5q3 -5 16.5 -14t13.5 -25q0 -3 -3.5 -20.5t-6.5 -49.5t-3 -69q0 -73 29 -125t77 -52q44 0 73.5 36
t40 78.5t10.5 84.5q-66 17 -107 64t-41 118q0 40 22.5 69t60.5 29q53 0 86 -50.5t44 -137.5q143 12 227 144q14 22 22 30.5t17 8.5q11 0 11 -13q0 -7 -4 -23t-6 -26q0 -5 -0.5 -14t-1 -13.5t-4.5 -15t-12 -24.5zM293 433q0 -26 18.5 -51.5t53.5 -36.5q-5 41 -15 70
t-19.5 40.5t-18.5 11.5q-19 0 -19 -34z" />
    <glyph glyph-name="w.ss01" horiz-adv-x="613" 
d="M298 105q-4 0 -16 -13.5t-27 -29t-43 -29t-61 -13.5q-49 0 -83.5 44.5t-34.5 126.5q0 62 12.5 126.5t25.5 84.5q10 16 20 16q19 0 40.5 -29.5t21.5 -60.5q0 -14 -6.5 -61.5t-6.5 -81.5q0 -77 49 -77q32 0 59.5 38.5t37.5 88.5q1 5 3 14.5t3 14t3 11.5t3.5 10t4 6.5t5.5 5
t7 1.5q27 0 36 -47q1 -4 5.5 -44.5t12.5 -73.5q17 -77 61 -77q33 0 49.5 56.5t16.5 129.5q0 49 -32 74t-32 62q0 17 12.5 33.5t34.5 16.5q39 0 63 -50t24 -122q0 -60 -13 -119t-47.5 -106.5t-83.5 -47.5q-33 0 -56 19t-32 42t-18.5 42t-17.5 19z" />
    <glyph glyph-name="w.fina" horiz-adv-x="670" 
d="M496 251q0 21 -2 53q-59 11 -99.5 52t-40.5 90q0 33 21 57t56 24q49 0 81.5 -40.5t45.5 -111.5q94 21 167 136q14 22 22 30.5t17 8.5q11 0 11 -13q0 -7 -8.5 -25.5t-11.5 -32.5q-1 -6 0.5 -16.5t0 -20t-8.5 -21.5q-22 -39 -71.5 -74.5t-110.5 -43.5q1 -9 1 -27
q0 -55 -17 -107t-53 -89t-84 -37q-65 0 -105 56q-20 -40 -56.5 -69.5t-81.5 -29.5q-63 0 -99.5 43.5t-36.5 127.5q0 62 12.5 126.5t25.5 84.5q10 16 26 16q15 0 15 -19q0 -34 23 -41q15 -4 15 -30q0 -13 -6.5 -54.5t-6.5 -78.5q0 -44 14.5 -70.5t40.5 -26.5q40 0 77 71
q-20 43 -20 78q0 40 17 68.5t45 28.5q25 0 46 -27.5t21 -69.5q0 -41 -18 -79q23 -44 57 -44q33 0 56 43.5t23 103.5zM431 420q0 -15 13.5 -29.5t39.5 -19.5q-8 33 -19 49.5t-21 16.5q-13 0 -13 -17z" />
    <glyph glyph-name="x.ss01" horiz-adv-x="451" 
d="M60 -16q0 48 126 237q-18 24 -70 92q-18 24 -18 57q0 19 9 37t19 18q15 0 75 -62l9 -9q1 -1 40 -43q67 93 124 155t80 62q6 0 10.5 -5t4.5 -11q0 -18 -37 -69q-72 -98 -133 -191q47 -61 73 -112t26 -74q0 -16 -17 -26t-22 -18q-17 -26 -22 -27q-2 -1 -5 -1q-4 0 -7.5 2.5
t-8 9.5t-7.5 13.5t-9.5 20.5t-11.5 25q-20 39 -51 86q-25 -40 -39 -70q-13 -26 -26 -54.5t-19.5 -43.5t-13.5 -28.5t-12.5 -18.5t-11.5 -5q-21 0 -38 16.5t-17 36.5z" />
    <glyph glyph-name="x.fina" horiz-adv-x="629" 
d="M85 52q0 15 35 59.5t88 95.5l-2 5q-14 35 -31 117.5t-17 119.5q0 22 17 22q14 0 27.5 -10t17.5 -21q2 -5 18 -62.5t26 -81.5q9 -23 11 -29q51 41 93 67q67 42 82 42t15 -16t-39 -48q-62 -49 -123 -105q46 -90 92 -126t98 -36q43 0 81 18t53 32t49 49q32 32 40 32
q13 0 13 -21q0 -28 -51 -100q-96 -132 -200 -132q-76 0 -131 46.5t-110 168.5q-39 -43 -66 -84q-8 -11 -16 -24t-11.5 -18.5t-8 -11t-7 -7.5t-5.5 -2q-9 0 -18 25q-1 4 -10.5 15.5t-9.5 20.5z" />
    <glyph glyph-name="y.ss01" horiz-adv-x="471" 
d="M407 -95q-23 -85 -87 -129.5t-151 -44.5q-62 0 -110 34.5t-48 94.5q0 36 27.5 61.5t55.5 25.5q18 0 18 -15q0 -6 -2 -19t-2 -20q-3 -35 27 -55t79 -20q51 0 88.5 39.5t37.5 119.5q0 50 -37 168q-20 -46 -54 -70.5t-70 -24.5q-62 0 -94.5 45t-40.5 137q-7 77 -7 118
q0 47 26 47q10 0 20.5 -8.5t16.5 -11.5q4 -1 14.5 0t14.5 -2q12 -8 14 -40q0 -12 -0.5 -48t0.5 -58.5t5.5 -50.5t17.5 -42t33 -14q32 0 55.5 28t33 58.5t19 72.5t11.5 48q10 28 29 40.5t38 12.5q18 0 24 -8t6 -27q0 -16 -5.5 -68.5t-0.5 -98.5q1 -10 4 -48.5t4 -51.5
t2 -43.5t0 -47.5t-4 -40.5t-8 -43.5z" />
    <glyph glyph-name="y.fina" horiz-adv-x="541" 
d="M325 199q-9 29 -19 29q-7 0 -17 -16q-26 -44 -60 -74t-64 -30q-62 0 -98 51.5t-36 135.5q0 97 13.5 158t39.5 61q15 0 38 -17.5t23 -37.5q0 -5 -9 -54t-9 -105q0 -47 15.5 -77.5t43.5 -30.5q13 0 26 6.5t22.5 15.5t19.5 25t16.5 27.5t14 31t10.5 28.5l8.5 25.5t5.5 17.5
q14 43 36 43q5 0 12 -2.5t10 -2.5q7 0 15.5 6.5t16.5 6.5q16 0 16 -33q0 -30 -3 -70.5t-3 -61.5q0 -42 19 -147q117 38 164 86q20 21 29 21q7 0 10 -5t5 -18t3 -17t8 -12t7 -12q0 -6 -6 -17q-43 -70 -212 -107q-2 -133 -72 -214.5t-177 -81.5q-54 0 -96 36t-42 99
q0 53 39.5 99t104.5 70q56 22 158 50q-6 51 -26 114zM146 -101q0 -38 24 -59.5t62 -21.5q47 0 85.5 42t38.5 127v24q-106 -20 -143 -32q-31 -10 -49 -31.5t-18 -48.5z" />
    <glyph glyph-name="z.ss01" horiz-adv-x="480" 
d="M459 -1q0 -127 -67.5 -201.5t-154.5 -74.5q-72 0 -120.5 39.5t-48.5 94.5q0 26 15.5 51t37.5 44.5t59 42t66.5 37.5t74.5 36q11 5 17 8q-18 38 -52 57q-32 -19 -75 -19q-21 0 -41 13t-20 33q0 23 30 36t86 13h10q29 56 21 87q-6 23 -33 39.5t-76 35.5q-9 3 -14 5
q-30 -192 -114 -270q-19 -18 -35 -18q-23 0 -23 37q0 24 10 34q93 96 112 244q-29 24 -29 73q0 29 13 52t36 23q22 0 35 -20t11 -47q4 -5 35 -19.5t63 -30.5t59 -45t27 -63q0 -54 -40 -130q59 -23 92 -75q70 38 94 73q15 21 29 21q4 0 7 -0.5t4.5 -3t2 -4.5l2 -8t2.5 -9
q1 -4 8 -12t7 -12q0 -8 -6 -17q-37 -56 -121 -101q4 -30 4 -49zM160 -117q0 -41 31.5 -65.5t68.5 -24.5q49 0 75.5 32.5t26.5 125.5q0 29 -3 54q-12 -5 -33.5 -13t-33.5 -12.5t-30 -12t-28.5 -12.5t-24 -12t-21 -13.5t-15 -14t-10.5 -15.5t-3 -17z" />
    <glyph glyph-name="z.intr" horiz-adv-x="480" 
d="M297 152q-53 -12 -73 -12q-63 0 -63 59q0 40 91 42q32 57 32 84q0 23 -24 42t-66 29q-14 3 -38 11q-34 -103 -104 -161q-10 -9 -24 -9q-18 0 -32 16t-14 35q0 18 16 27q42 22 63 53t35 73q-28 28 -28 70q0 31 16.5 64t39.5 33t37.5 -31t11.5 -74q1 -1 50.5 -23.5
t90.5 -58t42 -79.5q0 -11 -2 -22t-8 -24t-10 -21t-12.5 -23.5t-11.5 -20.5q71 -30 108 -112q64 36 100 75q20 21 29 21q7 0 10 -5t5 -18t3 -17t8 -12t7 -12q0 -6 -6 -17q-39 -63 -133 -107v-11q0 -141 -61 -216.5t-162 -75.5q-60 0 -109 36t-49 93q0 19 7.5 37.5t18 33
t30 30.5t36.5 27t45.5 26.5t47.5 24.5t52 25t51 25q-14 80 -53 70zM159 -114q0 -35 24.5 -54.5t65.5 -19.5q39 0 71 48t35 133q-14 -4 -42.5 -13t-41.5 -13.5t-35 -12.5t-32.5 -14t-22.5 -15t-17 -18.5t-5 -20.5z" />
    <glyph glyph-name="z.fina" horiz-adv-x="553" 
d="M298 177q-53 -12 -73 -12q-63 0 -63 59q0 42 97 42q23 51 23 80t-88 50q-3 1 -8.5 2.5t-7.5 1.5q-30 -212 -118 -294q-19 -18 -35 -18q-23 0 -23 37q0 24 10 34q101 103 114 261q-58 30 -58 91q0 31 16.5 64t39.5 33t37.5 -31t11.5 -74q3 -3 33.5 -15t61.5 -27t58 -41.5
t28 -56.5q1 -32 -31 -102q115 -18 162 -107q124 -2 163 -24q24 -13 27 -22q2 -8 -3 -13.5t-20.5 -12t-19.5 -8.5t-9.5 -11t-9.5 -10q-7 -1 -18 2q-4 1 -16.5 7t-31 13t-39.5 11q4 -21 4 -51q0 -108 -71.5 -179.5t-175.5 -71.5q-70 0 -124.5 40.5t-54.5 105.5q0 42 20.5 77.5
t52 59t73.5 41t81.5 27t79.5 14.5q-35 41 -95 28zM183 -36q0 -52 35 -79.5t86 -27.5q62 0 92.5 46t30.5 130q0 33 -7 61q-122 -1 -179.5 -37t-57.5 -93z" />
    <glyph glyph-name="z_intr.fina" horiz-adv-x="503" 
d="M278 217q-53 -12 -73 -12q-63 0 -63 59q0 42 101 42q19 35 19 60q0 34 -68 50q-22 6 -32 9q-36 -117 -110 -179q-10 -9 -24 -9q-18 0 -32 16t-14 35q0 18 16 27q32 17 54 43t30.5 47t17.5 52q-32 28 -32 74q0 31 16.5 64t39.5 33t37.5 -31t11.5 -74q1 0 44.5 -20
t79.5 -51t37 -69q1 -33 -30 -86q85 -28 136 -117q14 2 42 2q76 0 118 -16q28 -11 28 -26q0 -7 -6 -11.5t-19.5 -10t-18.5 -8.5q-4 -2 -11 -12t-13 -10q-4 0 -13 3q-20 7 -73 10q13 -50 13 -97q0 -105 -60 -162.5t-153 -57.5q-72 0 -130 46.5t-58 119.5q0 85 78.5 141
t193.5 79q-34 56 -80 47zM183 -29q0 -52 35 -82.5t83 -30.5q101 0 101 116q0 65 -17 127q-96 -7 -149 -40.5t-53 -89.5z" />
    <glyph glyph-name="Aacute.ss01" horiz-adv-x="819" 
d="M582 942q-24 0 -24 38q0 47 38 113t77 66q23 0 44 -12t21 -29q0 -15 -62 -85q-4 -5 -12 -14.5t-12.5 -14.5t-11.5 -13.5t-11.5 -13.5t-10.5 -11t-10.5 -10t-9.5 -7.5t-9 -5t-7 -1.5zM679 869q64 0 113 -14.5t66 -31.5q11 -11 11 -18q0 -8 -5.5 -12t-13 -4.5t-19 -3
t-19.5 -8.5q-8 -5 -13.5 -20t-10.5 -15q-2 0 -42 12t-89 12q-252 0 -369.5 -126t-117.5 -352q0 -239 152 -239q95 0 185.5 149.5t150.5 439.5q5 23 30 37.5t46 14.5q26 0 18 -71q-21 -195 -21 -323q0 -80 14.5 -114t50.5 -34q22 0 50 27t44 27q28 0 28 -31q0 -18 -17 -42
q-46 -63 -120 -63q-84 0 -118 88q-12 31 -15.5 71.5t-5 62.5t-10.5 22q-3 0 -6 -3.5t-7.5 -12.5t-7 -16t-8.5 -22.5t-9 -22.5q-31 -76 -70 -131.5t-80 -84t-79 -41.5t-77 -13q-102 0 -168 72t-66 222q0 118 50 230t133.5 196t199.5 135t242 51z" />
    <glyph glyph-name="Acircumflex.ss01" horiz-adv-x="819" 
d="M474 961q0 44 63 121t109 77q53 0 97 -44.5t44 -77.5q0 -24 -20 -31q-10 -4 -24.5 -28t-20.5 -24t-17 23q-20 43 -44.5 69.5t-41.5 26.5q-29 0 -86 -85q-3 -5 -8 -12t-7 -10.5t-5.5 -8t-5.5 -6.5t-4.5 -5t-4.5 -4t-4.5 -1.5t-5.5 -0.5q-14 0 -14 21zM679 869
q64 0 113 -14.5t66 -31.5q11 -11 11 -18q0 -8 -5.5 -12t-13 -4.5t-19 -3t-19.5 -8.5q-8 -5 -13.5 -20t-10.5 -15q-2 0 -42 12t-89 12q-252 0 -369.5 -126t-117.5 -352q0 -239 152 -239q95 0 185.5 149.5t150.5 439.5q5 23 30 37.5t46 14.5q26 0 18 -71q-21 -195 -21 -323
q0 -80 14.5 -114t50.5 -34q22 0 50 27t44 27q28 0 28 -31q0 -18 -17 -42q-46 -63 -120 -63q-84 0 -118 88q-12 31 -15.5 71.5t-5 62.5t-10.5 22q-3 0 -6 -3.5t-7.5 -12.5t-7 -16t-8.5 -22.5t-9 -22.5q-31 -76 -70 -131.5t-80 -84t-79 -41.5t-77 -13q-102 0 -168 72t-66 222
q0 118 50 230t133.5 196t199.5 135t242 51z" />
    <glyph glyph-name="Adieresis.ss01" horiz-adv-x="819" 
d="M652 1055q0 16 46 47t69 31q7 0 10 -4.5t6 -16t5 -17.5q2 -4 11.5 -5t9.5 -9q0 -25 -25.5 -50.5t-51.5 -25.5q-24 0 -52 17.5t-28 32.5zM446 1039q0 17 48 47.5t79 30.5q17 0 25 -18.5t8 -44.5q0 -25 -25.5 -50.5t-51.5 -25.5q-25 0 -54 21.5t-29 39.5zM679 869
q64 0 113 -14.5t66 -31.5q11 -11 11 -18q0 -8 -5.5 -12t-13 -4.5t-19 -3t-19.5 -8.5q-8 -5 -13.5 -20t-10.5 -15q-2 0 -42 12t-89 12q-252 0 -369.5 -126t-117.5 -352q0 -239 152 -239q95 0 185.5 149.5t150.5 439.5q5 23 30 37.5t46 14.5q26 0 18 -71q-21 -195 -21 -323
q0 -80 14.5 -114t50.5 -34q22 0 50 27t44 27q28 0 28 -31q0 -18 -17 -42q-46 -63 -120 -63q-84 0 -118 88q-12 31 -15.5 71.5t-5 62.5t-10.5 22q-3 0 -6 -3.5t-7.5 -12.5t-7 -16t-8.5 -22.5t-9 -22.5q-31 -76 -70 -131.5t-80 -84t-79 -41.5t-77 -13q-102 0 -168 72t-66 222
q0 118 50 230t133.5 196t199.5 135t242 51z" />
    <glyph glyph-name="AE.ss01" horiz-adv-x="1080" 
d="M1133 98q-51 -72 -142.5 -124.5t-197.5 -52.5q-104 0 -172 59.5t-76 156.5q-63 -86 -129.5 -130t-127.5 -44q-102 0 -168 72t-66 222q0 155 78 294t212.5 224t289.5 85q65 0 115 -17t72 -41q59 17 116 17q58 0 104.5 -18.5t46.5 -40.5q0 -11 -28.5 -27.5t-33.5 -23.5
q-18 -31 -35 -31q-8 0 -13 4q-65 44 -145 44q-60 0 -95.5 -35.5t-35.5 -92.5q0 -96 81 -141q78 38 143 38q61 0 61 -39q0 -35 -44.5 -59t-100.5 -24q-48 0 -95 12q-85 -82 -85 -179q0 -85 49.5 -129.5t135.5 -44.5q126 0 262 143q9 10 18 10q15 0 15 -41q0 -32 -9 -46z
M170 288q0 -239 143 -239q30 0 60.5 15.5t65 50.5t58 63t65.5 81q15 19 22 28q56 70 115 115q-111 50 -111 147q0 115 112 195q-35 13 -88 13q-228 0 -335 -123.5t-107 -345.5z" />
    <glyph glyph-name="Aring.ss01" horiz-adv-x="819" 
d="M505 1064q0 73 42.5 115.5t97.5 42.5q49 0 83 -33.5t34 -94.5q0 -65 -39.5 -114.5t-101.5 -49.5q-51 0 -83.5 41t-32.5 93zM650 1168q-24 0 -41.5 -19.5t-17.5 -52.5q0 -41 17.5 -65.5t43.5 -24.5q24 0 41 24.5t17 60.5q0 38 -18 57.5t-42 19.5zM679 869q64 0 113 -14.5
t66 -31.5q11 -11 11 -18q0 -8 -5.5 -12t-13 -4.5t-19 -3t-19.5 -8.5q-8 -5 -13.5 -20t-10.5 -15q-2 0 -42 12t-89 12q-252 0 -369.5 -126t-117.5 -352q0 -239 152 -239q95 0 185.5 149.5t150.5 439.5q5 23 30 37.5t46 14.5q26 0 18 -71q-21 -195 -21 -323q0 -80 14.5 -114
t50.5 -34q22 0 50 27t44 27q28 0 28 -31q0 -18 -17 -42q-46 -63 -120 -63q-84 0 -118 88q-12 31 -15.5 71.5t-5 62.5t-10.5 22q-3 0 -6 -3.5t-7.5 -12.5t-7 -16t-8.5 -22.5t-9 -22.5q-31 -76 -70 -131.5t-80 -84t-79 -41.5t-77 -13q-102 0 -168 72t-66 222q0 118 50 230
t133.5 196t199.5 135t242 51z" />
    <glyph glyph-name="Atilde.ss01" horiz-adv-x="819" 
d="M800 1162q20 0 20 -25q0 -22 -10 -53t-38.5 -61t-67.5 -30q-27 0 -69.5 17.5t-62.5 17.5q-23 0 -39 -13t-22 -28.5t-14 -28.5t-17 -13q-22 0 -22 26q0 54 33 104.5t92 50.5q27 0 72.5 -17.5t64.5 -17.5q16 0 28.5 11t19.5 24.5t15.5 24.5t16.5 11zM679 869
q64 0 113 -14.5t66 -31.5q11 -11 11 -18q0 -8 -5.5 -12t-13 -4.5t-19 -3t-19.5 -8.5q-8 -5 -13.5 -20t-10.5 -15q-2 0 -42 12t-89 12q-252 0 -369.5 -126t-117.5 -352q0 -239 152 -239q95 0 185.5 149.5t150.5 439.5q5 23 30 37.5t46 14.5q26 0 18 -71q-21 -195 -21 -323
q0 -80 14.5 -114t50.5 -34q22 0 50 27t44 27q28 0 28 -31q0 -18 -17 -42q-46 -63 -120 -63q-84 0 -118 88q-12 31 -15.5 71.5t-5 62.5t-10.5 22q-3 0 -6 -3.5t-7.5 -12.5t-7 -16t-8.5 -22.5t-9 -22.5q-31 -76 -70 -131.5t-80 -84t-79 -41.5t-77 -13q-102 0 -168 72t-66 222
q0 118 50 230t133.5 196t199.5 135t242 51z" />
    <glyph glyph-name="Ccedilla.ss01" horiz-adv-x="964" 
d="M562 285q-106 0 -214 27q-7 -45 -7 -102q0 -94 31 -168.5t83.5 -119.5t116.5 -68t134 -23q56 0 100 9.5t71 19.5t42 10q16 0 16 -10q0 -4 -4 -9t-10 -10.5t-8 -8.5q-4 -6 -5.5 -25t-9.5 -24q-30 -22 -93 -45.5t-131 -23.5h-8q-9 -19 -13 -37q54 3 80 -25.5t26 -71.5
q0 -63 -41.5 -97t-100.5 -34q-69 0 -110 48q-14 17 -14 29q0 11 11.5 20t11.5 17q0 13 11 13q2 0 28.5 -17.5t59.5 -17.5q68 0 68 50q0 39 -41 39q-10 0 -22.5 -3.5t-18.5 -3.5q-18 0 -18 19q0 21 30 76q-56 7 -109 24.5t-105 52.5t-90.5 83t-62.5 120.5t-24 159.5
q0 94 30 187q-97 40 -150 92q-33 32 -49.5 59.5t-16.5 42.5q0 17 14 17q4 0 18.5 -5t23.5 -5q16 0 31.5 11.5t21.5 11.5q15 0 29 -14q58 -57 124 -98q73 141 194.5 230t265.5 89q101 0 160.5 -48t59.5 -126q0 -125 -117 -221t-299 -96zM721 697q-113 0 -208 -73.5
t-140 -205.5q107 -48 213 -48q151 0 228.5 48t77.5 138q0 68 -48.5 104.5t-122.5 36.5z" />
    <glyph glyph-name="Eacute.ss01" horiz-adv-x="563" 
d="M318 844q-24 0 -24 38q0 47 38 113t77 66q23 0 44 -12t21 -29q0 -15 -62 -85q-4 -5 -12 -14.5t-12.5 -14.5t-11.5 -13.5t-11.5 -13.5t-10.5 -11t-10.5 -10t-9.5 -7.5t-9 -5t-7 -1.5zM71 549q0 111 105 190.5t244 79.5q55 0 103 -18.5t48 -40.5q0 -11 -27.5 -26.5
t-34.5 -24.5q-3 -4 -10 -14.5t-12 -13.5t-13 -3t-29 14q-51 34 -123 34q-64 0 -100.5 -35t-36.5 -93q0 -96 80 -141q82 38 144 38q61 0 61 -39q0 -35 -44.5 -59t-100.5 -24q-49 0 -95 12q-85 -82 -85 -179q0 -85 49.5 -129.5t135.5 -44.5q126 0 262 143q9 10 18 10
q15 0 15 -35q0 -39 -15 -60q-47 -66 -138 -117.5t-196 -51.5q-111 0 -180 63.5t-69 164.5q0 147 149 256q-105 50 -105 144z" />
    <glyph glyph-name="Ecircumflex.ss01" horiz-adv-x="563" 
d="M210 863q0 44 63 121t109 77q53 0 97 -44.5t44 -77.5q0 -24 -20 -31q-10 -4 -24.5 -28t-20.5 -24t-17 23q-20 43 -44.5 69.5t-41.5 26.5q-29 0 -86 -85q-3 -5 -8 -12t-7 -10.5t-5.5 -8t-5.5 -6.5t-4.5 -5t-4.5 -4t-4.5 -1.5t-5.5 -0.5q-14 0 -14 21zM71 549
q0 111 105 190.5t244 79.5q55 0 103 -18.5t48 -40.5q0 -11 -27.5 -26.5t-34.5 -24.5q-3 -4 -10 -14.5t-12 -13.5t-13 -3t-29 14q-51 34 -123 34q-64 0 -100.5 -35t-36.5 -93q0 -96 80 -141q82 38 144 38q61 0 61 -39q0 -35 -44.5 -59t-100.5 -24q-49 0 -95 12
q-85 -82 -85 -179q0 -85 49.5 -129.5t135.5 -44.5q126 0 262 143q9 10 18 10q15 0 15 -35q0 -39 -15 -60q-47 -66 -138 -117.5t-196 -51.5q-111 0 -180 63.5t-69 164.5q0 147 149 256q-105 50 -105 144z" />
    <glyph glyph-name="Edieresis.ss01" horiz-adv-x="563" 
d="M388 957q0 16 46 47t69 31q7 0 10 -4.5t6 -16t5 -17.5q2 -4 11.5 -5t9.5 -9q0 -25 -25.5 -50.5t-51.5 -25.5q-24 0 -52 17.5t-28 32.5zM182 941q0 17 48 47.5t79 30.5q17 0 25 -18.5t8 -44.5q0 -25 -25.5 -50.5t-51.5 -25.5q-25 0 -54 21.5t-29 39.5zM71 549
q0 111 105 190.5t244 79.5q55 0 103 -18.5t48 -40.5q0 -11 -27.5 -26.5t-34.5 -24.5q-3 -4 -10 -14.5t-12 -13.5t-13 -3t-29 14q-51 34 -123 34q-64 0 -100.5 -35t-36.5 -93q0 -96 80 -141q82 38 144 38q61 0 61 -39q0 -35 -44.5 -59t-100.5 -24q-49 0 -95 12
q-85 -82 -85 -179q0 -85 49.5 -129.5t135.5 -44.5q126 0 262 143q9 10 18 10q15 0 15 -35q0 -39 -15 -60q-47 -66 -138 -117.5t-196 -51.5q-111 0 -180 63.5t-69 164.5q0 147 149 256q-105 50 -105 144z" />
    <glyph glyph-name="Egrave.ss01" horiz-adv-x="563" 
d="M368 1022q25 -29 40.5 -69.5t15.5 -70.5q0 -38 -19 -38q-31 0 -105 88q-56 63 -56 88q0 7 5 9.5t14 4.5t14 6q3 2 9 8.5t11.5 9.5t11.5 3q26 0 59 -39zM71 549q0 111 105 190.5t244 79.5q55 0 103 -18.5t48 -40.5q0 -11 -27.5 -26.5t-34.5 -24.5q-3 -4 -10 -14.5
t-12 -13.5t-13 -3t-29 14q-51 34 -123 34q-64 0 -100.5 -35t-36.5 -93q0 -96 80 -141q82 38 144 38q61 0 61 -39q0 -35 -44.5 -59t-100.5 -24q-49 0 -95 12q-85 -82 -85 -179q0 -85 49.5 -129.5t135.5 -44.5q126 0 262 143q9 10 18 10q15 0 15 -35q0 -39 -15 -60
q-47 -66 -138 -117.5t-196 -51.5q-111 0 -180 63.5t-69 164.5q0 147 149 256q-105 50 -105 144z" />
    <glyph glyph-name="Eth.ss01" horiz-adv-x="1054" 
d="M634 -51q-129 0 -259 71q-84 -114 -209 -114q-61 0 -100.5 30t-39.5 81t55 96t137 45q58 0 116 -20q15 52 27 116q-78 -5 -103 -5q-26 0 -49.5 17t-23.5 33q0 12 56 25.5t138 20.5q5 28 14 70q-38 -2 -57 -2q-87 0 -147 41.5t-60 100.5q0 97 99 167t264 70
q242 0 375 -110.5t133 -280.5q0 -92 -23 -169t-60.5 -128t-85.5 -87t-98 -52t-99 -16zM237 610q0 -38 29.5 -60t84.5 -22q32 0 69 5q29 111 64 185q-10 1 -31 1q-104 0 -160 -30t-56 -79zM625 345q38 -4 38 -20q0 -5 -3.5 -14t-3.5 -14q0 -3 6.5 -10t6.5 -14q0 -16 -28 -16
q-1 0 -55 1.5t-94 0.5h-9q-26 -93 -59 -159q44 -21 68.5 -31.5t68.5 -21t88 -10.5q249 0 249 281q0 162 -89.5 263t-243.5 129q-7 -39 -22 -149q74 24 84 24t10 -8q0 -6 -14 -30t-14 -35q0 -4 0.5 -9.5t0.5 -8.5q0 -5 -1.5 -8t-12 -11t-30.5 -18q-19 -10 -43 -17
q-5 -29 -17 -89q60 0 119 -6zM105 47q-1 -29 27.5 -48t69.5 -19q66 0 104 80q-77 43 -122 43q-33 0 -56 -16t-23 -40z" />
    <glyph glyph-name="Icircumflex.ss01" horiz-adv-x="507" 
d="M147 843q0 44 63 121t109 77q53 0 97 -44.5t44 -77.5q0 -24 -20 -31q-10 -4 -24.5 -28t-20.5 -24q-5 0 -17 23q-20 43 -44.5 69.5t-41.5 26.5q-29 0 -86 -85q-3 -5 -8 -12t-7 -10.5t-5.5 -8t-5.5 -6.5t-4.5 -5t-4.5 -4t-4.5 -1.5t-5.5 -0.5q-14 0 -14 21zM293 -82
q-52 -2 -106 -11t-67 -9q-26 0 -53 24.5t-27 47.5q0 16 49 37.5t119 33.5q-11 119 -11 250q-4 181 14 323q1 6 2.5 16.5t1.5 15.5q-155 0 -155 65q0 22 102.5 44t211.5 22q100 0 100 -33q0 -6 -2 -19t-2 -19t6 -14t6 -15q0 -17 -27 -19q-2 0 -26.5 -0.5t-62 -2.5t-69.5 -5
q-3 0 -10 -0.5t-10 -1.5q-5 -93 -5 -175q0 -67 4 -140.5t8 -115t11 -102.5t7 -65h30q81 0 122 -17q23 -9 23 -22q0 -4 -4 -14.5t-4 -15.5q0 -6 9 -21t9 -25q0 -18 -44 -18q-9 0 -37 1t-50 1t-63 -1z" />
    <glyph glyph-name="Idieresis.ss01" horiz-adv-x="507" 
d="M325 937q0 16 46 47t69 31q7 0 10 -4.5t6 -16t5 -17.5q2 -4 11.5 -5t9.5 -9q0 -25 -25.5 -50.5t-51.5 -25.5q-24 0 -52 17.5t-28 32.5zM119 921q0 17 48 47.5t79 30.5q17 0 25 -18.5t8 -44.5q0 -25 -25.5 -50.5t-51.5 -25.5q-25 0 -54 21.5t-29 39.5zM293 -82
q-52 -2 -106 -11t-67 -9q-26 0 -53 24.5t-27 47.5q0 16 49 37.5t119 33.5q-11 119 -11 250q-4 181 14 323q1 6 2.5 16.5t1.5 15.5q-155 0 -155 65q0 22 102.5 44t211.5 22q100 0 100 -33q0 -6 -2 -19t-2 -19t6 -14t6 -15q0 -17 -27 -19q-2 0 -26.5 -0.5t-62 -2.5t-69.5 -5
q-3 0 -10 -0.5t-10 -1.5q-5 -93 -5 -175q0 -67 4 -140.5t8 -115t11 -102.5t7 -65h30q81 0 122 -17q23 -9 23 -22q0 -4 -4 -14.5t-4 -15.5q0 -6 9 -21t9 -25q0 -18 -44 -18q-9 0 -37 1t-50 1t-63 -1z" />
    <glyph glyph-name="Iacute.ss01" horiz-adv-x="507" 
d="M255 824q-24 0 -24 38q0 47 38 113t77 66q23 0 44 -12t21 -29q0 -15 -62 -85q-4 -5 -12 -14.5t-12.5 -14.5t-11.5 -13.5t-11.5 -13.5t-10.5 -11t-10.5 -10t-9.5 -7.5t-9 -5t-7 -1.5zM293 -82q-52 -2 -106 -11t-67 -9q-26 0 -53 24.5t-27 47.5q0 16 49 37.5t119 33.5
q-11 119 -11 250q-4 181 14 323q1 6 2.5 16.5t1.5 15.5q-155 0 -155 65q0 22 102.5 44t211.5 22q100 0 100 -33q0 -6 -2 -19t-2 -19t6 -14t6 -15q0 -17 -27 -19q-2 0 -26.5 -0.5t-62 -2.5t-69.5 -5q-3 0 -10 -0.5t-10 -1.5q-5 -93 -5 -175q0 -67 4 -140.5t8 -115t11 -102.5
t7 -65h30q81 0 122 -17q23 -9 23 -22q0 -4 -4 -14.5t-4 -15.5q0 -6 9 -21t9 -25q0 -18 -44 -18q-9 0 -37 1t-50 1t-63 -1z" />
    <glyph glyph-name="Igrave.ss01" horiz-adv-x="507" 
d="M305 1002q25 -29 40.5 -69.5t15.5 -70.5q0 -38 -19 -38q-31 0 -105 88q-56 63 -56 88q0 7 5 9.5t14 4.5t14 6q3 2 9 8.5t11.5 9.5t11.5 3q26 0 59 -39zM293 -82q-52 -2 -106 -11t-67 -9q-26 0 -53 24.5t-27 47.5q0 16 49 37.5t119 33.5q-11 119 -11 250q-4 181 14 323
q1 6 2.5 16.5t1.5 15.5q-155 0 -155 65q0 22 102.5 44t211.5 22q100 0 100 -33q0 -6 -2 -19t-2 -19t6 -14t6 -15q0 -17 -27 -19q-2 0 -26.5 -0.5t-62 -2.5t-69.5 -5q-3 0 -10 -0.5t-10 -1.5q-5 -93 -5 -175q0 -67 4 -140.5t8 -115t11 -102.5t7 -65h30q81 0 122 -17
q23 -9 23 -22q0 -4 -4 -14.5t-4 -15.5q0 -6 9 -21t9 -25q0 -18 -44 -18q-9 0 -37 1t-50 1t-63 -1z" />
    <glyph glyph-name="Ntilde.ss01" horiz-adv-x="757" 
d="M592 1044q20 0 20 -25q0 -22 -10 -53t-38.5 -61t-67.5 -30q-27 0 -69.5 17.5t-62.5 17.5q-23 0 -39 -13t-22 -28.5t-14 -28.5t-17 -13q-22 0 -22 26q0 54 33 104.5t92 50.5q27 0 72.5 -17.5t64.5 -17.5q16 0 28.5 11t19.5 24.5t15.5 24.5t16.5 11zM712 66
q-111 0 -158.5 91.5t-54.5 297.5q-4 120 -11.5 158t-31.5 38q-15 0 -38.5 -26t-52 -82t-53.5 -130.5t-42 -186t-18 -235.5q0 -27 -16 -27q-11 0 -26 10q-38 26 -45 37q-22 29 -22 71q0 118 41.5 349t41.5 260q0 19 -7.5 26t-23.5 7q-42 0 -91 -23.5t-66 -23.5q-8 0 -14.5 3
t-14.5 8.5t-13 7.5q-3 1 -9.5 3t-9.5 3.5t-7.5 4t-6 5.5t-1.5 7q0 10 34 32t88 42t98 20t76 -29.5t32 -95.5q0 -24 -3.5 -63.5t-3.5 -50.5q0 -23 8 -23q10 0 20 20q96 173 177 173q57 0 86 -52.5t34 -161.5q1 -12 2 -48t2 -55.5t3.5 -55t6.5 -57t10 -51t15 -47.5t21 -35
t29 -25t37 -8q22 0 50 27t44 27q28 0 28 -31q0 -18 -17 -42q-46 -63 -127 -63z" />
    <glyph glyph-name="Oacute.ss01" horiz-adv-x="811" 
d="M406 863q-24 0 -24 38q0 47 38 113t77 66q23 0 44 -12t21 -29q0 -15 -62 -85q-4 -5 -12 -14.5t-12.5 -14.5t-11.5 -13.5t-11.5 -13.5t-10.5 -11t-10.5 -10t-9.5 -7.5t-9 -5t-7 -1.5zM457 823q104 0 186 -79.5t100 -221.5q19 3 38 7.5t29.5 7.5t13.5 3q16 0 16 -18
q0 -5 -4 -12t-11.5 -16.5t-11.5 -18.5q-2 -5 -6 -14t-7 -14.5t-6.5 -12t-7 -10.5t-6.5 -6q-9 -6 -34 -11q-8 -131 -54 -249t-129 -197t-183 -79q-99 0 -174.5 58.5t-113.5 152t-38 205.5q0 116 37.5 217.5t96.5 167t129.5 103t139.5 37.5zM183 325q0 -87 20.5 -152.5
t54 -102t71 -54.5t77.5 -18q63 0 110.5 36.5t74 98t40 129.5t15.5 143q-92 13 -158 64.5t-66 128.5q0 62 33 99.5t91 40.5q-34 26 -81 26q-117 0 -199.5 -114.5t-82.5 -324.5zM501 616q0 -33 40.5 -59.5t97.5 -35.5q-11 64 -33 104.5t-55 40.5q-24 0 -37 -15t-13 -35z" />
    <glyph glyph-name="Ocircumflex.ss01" horiz-adv-x="811" 
d="M298 882q0 44 63 121t109 77q53 0 97 -44.5t44 -77.5q0 -24 -20 -31q-10 -4 -24.5 -28t-20.5 -24t-17 23q-20 43 -44.5 69.5t-41.5 26.5q-29 0 -86 -85q-3 -5 -8 -12t-7 -10.5t-5.5 -8t-5.5 -6.5t-4.5 -5t-4.5 -4t-4.5 -1.5t-5.5 -0.5q-14 0 -14 21zM457 823
q104 0 186 -79.5t100 -221.5q19 3 38 7.5t29.5 7.5t13.5 3q16 0 16 -18q0 -5 -4 -12t-11.5 -16.5t-11.5 -18.5q-2 -5 -6 -14t-7 -14.5t-6.5 -12t-7 -10.5t-6.5 -6q-9 -6 -34 -11q-8 -131 -54 -249t-129 -197t-183 -79q-99 0 -174.5 58.5t-113.5 152t-38 205.5
q0 116 37.5 217.5t96.5 167t129.5 103t139.5 37.5zM183 325q0 -87 20.5 -152.5t54 -102t71 -54.5t77.5 -18q63 0 110.5 36.5t74 98t40 129.5t15.5 143q-92 13 -158 64.5t-66 128.5q0 62 33 99.5t91 40.5q-34 26 -81 26q-117 0 -199.5 -114.5t-82.5 -324.5zM501 616
q0 -33 40.5 -59.5t97.5 -35.5q-11 64 -33 104.5t-55 40.5q-24 0 -37 -15t-13 -35z" />
    <glyph glyph-name="Odieresis.ss01" horiz-adv-x="811" 
d="M476 976q0 16 46 47t69 31q7 0 10 -4.5t6 -16t5 -17.5q2 -4 11.5 -5t9.5 -9q0 -25 -25.5 -50.5t-51.5 -25.5q-24 0 -52 17.5t-28 32.5zM270 960q0 17 48 47.5t79 30.5q17 0 25 -18.5t8 -44.5q0 -25 -25.5 -50.5t-51.5 -25.5q-25 0 -54 21.5t-29 39.5zM457 823
q104 0 186 -79.5t100 -221.5q19 3 38 7.5t29.5 7.5t13.5 3q16 0 16 -18q0 -5 -4 -12t-11.5 -16.5t-11.5 -18.5q-2 -5 -6 -14t-7 -14.5t-6.5 -12t-7 -10.5t-6.5 -6q-9 -6 -34 -11q-8 -131 -54 -249t-129 -197t-183 -79q-99 0 -174.5 58.5t-113.5 152t-38 205.5
q0 116 37.5 217.5t96.5 167t129.5 103t139.5 37.5zM183 325q0 -87 20.5 -152.5t54 -102t71 -54.5t77.5 -18q63 0 110.5 36.5t74 98t40 129.5t15.5 143q-92 13 -158 64.5t-66 128.5q0 62 33 99.5t91 40.5q-34 26 -81 26q-117 0 -199.5 -114.5t-82.5 -324.5zM501 616
q0 -33 40.5 -59.5t97.5 -35.5q-11 64 -33 104.5t-55 40.5q-24 0 -37 -15t-13 -35z" />
    <glyph glyph-name="Ograve.ss01" horiz-adv-x="811" 
d="M456 1041q25 -29 40.5 -69.5t15.5 -70.5q0 -38 -19 -38q-31 0 -105 88q-56 63 -56 88q0 7 5 9.5t14 4.5t14 6q3 2 9 8.5t11.5 9.5t11.5 3q26 0 59 -39zM457 823q104 0 186 -79.5t100 -221.5q19 3 38 7.5t29.5 7.5t13.5 3q16 0 16 -18q0 -5 -4 -12t-11.5 -16.5
t-11.5 -18.5q-2 -5 -6 -14t-7 -14.5t-6.5 -12t-7 -10.5t-6.5 -6q-9 -6 -34 -11q-8 -131 -54 -249t-129 -197t-183 -79q-99 0 -174.5 58.5t-113.5 152t-38 205.5q0 116 37.5 217.5t96.5 167t129.5 103t139.5 37.5zM183 325q0 -87 20.5 -152.5t54 -102t71 -54.5t77.5 -18
q63 0 110.5 36.5t74 98t40 129.5t15.5 143q-92 13 -158 64.5t-66 128.5q0 62 33 99.5t91 40.5q-34 26 -81 26q-117 0 -199.5 -114.5t-82.5 -324.5zM501 616q0 -33 40.5 -59.5t97.5 -35.5q-11 64 -33 104.5t-55 40.5q-24 0 -37 -15t-13 -35z" />
    <glyph glyph-name="Oslash.ss01" horiz-adv-x="811" 
d="M457 823q107 0 187 -80q52 52 100 92q6 5 15 5q25 0 25 -41q0 -43 -49 -91l-38 -38q36 -64 46 -148q19 3 38 7.5t29.5 7.5t13.5 3q16 0 16 -18q0 -5 -4 -12t-11.5 -16.5t-11.5 -18.5q-2 -5 -6 -14t-7 -14.5t-6.5 -12t-7 -10.5t-6.5 -6q-9 -6 -34 -11q-8 -131 -54 -249
t-129 -197t-183 -79q-117 0 -201 81q-26 -52 -46 -88q-25 -42 -45 -42q-8 0 -15 5t-7 14q0 37 65 169q-77 115 -77 277q0 116 37.5 217.5t96.5 167t129.5 103t139.5 37.5zM183 325q0 -92 24 -162q58 102 104 170q69 100 135 183q-24 38 -24 82q0 62 33 99.5t91 40.5
q-34 26 -81 26q-117 0 -199.5 -114.5t-82.5 -324.5zM501 616q0 -12 6 -24q53 61 62 70q-8 4 -18 4q-24 0 -37 -15t-13 -35zM576 538q30 -12 63 -17q-6 35 -17 69q-2 -2 -46 -52zM347 238q-58 -80 -101 -154q63 -86 160 -86q63 0 110.5 36.5t74 98t40 129.5t15.5 143
q-80 11 -138 50q-54 -69 -161 -217z" />
    <glyph glyph-name="Otilde.ss01" horiz-adv-x="811" 
d="M624 1083q20 0 20 -25q0 -22 -10 -53t-38.5 -61t-67.5 -30q-27 0 -69.5 17.5t-62.5 17.5q-23 0 -39 -13t-22 -28.5t-14 -28.5t-17 -13q-22 0 -22 26q0 54 33 104.5t92 50.5q27 0 72.5 -17.5t64.5 -17.5q20 0 34.5 18t25 35.5t20.5 17.5zM457 823q104 0 186 -79.5
t100 -221.5q19 3 38 7.5t29.5 7.5t13.5 3q16 0 16 -18q0 -5 -4 -12t-11.5 -16.5t-11.5 -18.5q-2 -5 -6 -14t-7 -14.5t-6.5 -12t-7 -10.5t-6.5 -6q-9 -6 -34 -11q-8 -131 -54 -249t-129 -197t-183 -79q-99 0 -174.5 58.5t-113.5 152t-38 205.5q0 116 37.5 217.5t96.5 167
t129.5 103t139.5 37.5zM183 325q0 -87 20.5 -152.5t54 -102t71 -54.5t77.5 -18q63 0 110.5 36.5t74 98t40 129.5t15.5 143q-92 13 -158 64.5t-66 128.5q0 62 33 99.5t91 40.5q-34 26 -81 26q-117 0 -199.5 -114.5t-82.5 -324.5zM501 616q0 -33 40.5 -59.5t97.5 -35.5
q-11 64 -33 104.5t-55 40.5q-24 0 -37 -15t-13 -35z" />
    <glyph glyph-name="Thorn.ss01" horiz-adv-x="680" 
d="M363 931q17 0 17 -17q0 -9 -9 -33.5t-24 -74t-27 -108.5q148 -3 249 -79t101 -207q0 -134 -100.5 -235.5t-261.5 -117.5q2 -10 5.5 -24.5t5.5 -24t3 -16.5q13 -67 13 -89q0 -25 -17 -25q-8 0 -22.5 12t-27.5 16q-5 2 -15 4.5l-14 3.5t-10.5 4.5t-10.5 8.5t-8 13.5
t-7 20.5q-21 87 -21 277q0 164 32 341q-50 -6 -100 -21t-73 -25t-66 -30q-8 -4 -22.5 -11.5t-23.5 -11t-17 -4.5q-10 -1 -17.5 6.5t-7.5 19.5q0 7 4 16.5t11 23.5t10 23q21 51 111 86t217 43q14 57 34 108q50 127 89 127zM286 297q0 -98 12 -180q124 16 195 78t71 170
q0 107 -74 162.5t-188 57.5q-16 -123 -16 -288z" />
    <glyph glyph-name="Uacute.ss01" horiz-adv-x="1030" 
d="M658 767q-24 0 -24 38q0 47 38 113t77 66q23 0 44 -12t21 -29q0 -15 -62 -85q-4 -5 -12 -14.5t-12.5 -14.5t-11.5 -13.5t-11.5 -13.5t-10.5 -11t-10.5 -10t-9.5 -7.5t-9 -5t-7 -1.5zM911 357q-3 -209 96 -209q22 0 50 27t44 27q28 0 28 -31q0 -18 -17 -42
q-46 -63 -120 -63q-54 0 -99 37t-62 104q-128 -283 -326 -283q-74 0 -126 51t-52 146q0 76 46.5 221.5t46.5 213.5q0 76 -50 129.5t-126 53.5q-60 0 -103.5 -36t-43.5 -88q0 -80 80 -104q43 -12 79 -12q11 0 26 2t19 2q16 0 16 -15q0 -7 -5.5 -13t-15 -13t-14.5 -14
q-24 -32 -46 -44t-59 -12q-77 0 -126 48t-49 135q0 100 75 168t193 68q106 0 182 -69.5t76 -193.5q0 -80 -39.5 -220.5t-39.5 -211.5q0 -116 93 -116q67 0 139 81t128 226q-2 164 31.5 280t89.5 116q57 0 57 -79q0 -54 -24 -130.5t-52 -136.5z" />
    <glyph glyph-name="Ucircumflex.ss01" horiz-adv-x="1030" 
d="M550 786q0 44 63 121t109 77q53 0 97 -44.5t44 -77.5q0 -24 -20 -31q-10 -4 -24.5 -28t-20.5 -24t-17 23q-20 43 -44.5 69.5t-41.5 26.5q-29 0 -86 -85q-3 -5 -8 -12t-7 -10.5t-5.5 -8t-5.5 -6.5t-4.5 -5t-4.5 -4t-4.5 -1.5t-5.5 -0.5q-14 0 -14 21zM911 357
q-3 -209 96 -209q22 0 50 27t44 27q28 0 28 -31q0 -18 -17 -42q-46 -63 -120 -63q-54 0 -99 37t-62 104q-128 -283 -326 -283q-74 0 -126 51t-52 146q0 76 46.5 221.5t46.5 213.5q0 76 -50 129.5t-126 53.5q-60 0 -103.5 -36t-43.5 -88q0 -80 80 -104q43 -12 79 -12
q11 0 26 2t19 2q16 0 16 -15q0 -7 -5.5 -13t-15 -13t-14.5 -14q-24 -32 -46 -44t-59 -12q-77 0 -126 48t-49 135q0 100 75 168t193 68q106 0 182 -69.5t76 -193.5q0 -80 -39.5 -220.5t-39.5 -211.5q0 -116 93 -116q67 0 139 81t128 226q-2 164 31.5 280t89.5 116
q57 0 57 -79q0 -54 -24 -130.5t-52 -136.5z" />
    <glyph glyph-name="Udieresis.ss01" horiz-adv-x="1030" 
d="M728 880q0 16 46 47t69 31q7 0 10 -4.5t6 -16t5 -17.5q2 -4 11.5 -5t9.5 -9q0 -25 -25.5 -50.5t-51.5 -25.5q-24 0 -52 17.5t-28 32.5zM522 864q0 17 48 47.5t79 30.5q17 0 25 -18.5t8 -44.5q0 -25 -25.5 -50.5t-51.5 -25.5q-25 0 -54 21.5t-29 39.5zM911 357
q-3 -209 96 -209q22 0 50 27t44 27q28 0 28 -31q0 -18 -17 -42q-46 -63 -120 -63q-54 0 -99 37t-62 104q-128 -283 -326 -283q-74 0 -126 51t-52 146q0 76 46.5 221.5t46.5 213.5q0 76 -50 129.5t-126 53.5q-60 0 -103.5 -36t-43.5 -88q0 -80 80 -104q43 -12 79 -12
q11 0 26 2t19 2q16 0 16 -15q0 -7 -5.5 -13t-15 -13t-14.5 -14q-24 -32 -46 -44t-59 -12q-77 0 -126 48t-49 135q0 100 75 168t193 68q106 0 182 -69.5t76 -193.5q0 -80 -39.5 -220.5t-39.5 -211.5q0 -116 93 -116q67 0 139 81t128 226q-2 164 31.5 280t89.5 116
q57 0 57 -79q0 -54 -24 -130.5t-52 -136.5z" />
    <glyph glyph-name="Ugrave.ss01" horiz-adv-x="1030" 
d="M708 945q25 -29 40.5 -69.5t15.5 -70.5q0 -38 -19 -38q-31 0 -105 88q-56 63 -56 88q0 7 5 9.5t14 4.5t14 6q3 2 9 8.5t11.5 9.5t11.5 3q26 0 59 -39zM911 357q-3 -209 96 -209q22 0 50 27t44 27q28 0 28 -31q0 -18 -17 -42q-46 -63 -120 -63q-54 0 -99 37t-62 104
q-128 -283 -326 -283q-74 0 -126 51t-52 146q0 76 46.5 221.5t46.5 213.5q0 76 -50 129.5t-126 53.5q-60 0 -103.5 -36t-43.5 -88q0 -80 80 -104q43 -12 79 -12q11 0 26 2t19 2q16 0 16 -15q0 -7 -5.5 -13t-15 -13t-14.5 -14q-24 -32 -46 -44t-59 -12q-77 0 -126 48t-49 135
q0 100 75 168t193 68q106 0 182 -69.5t76 -193.5q0 -80 -39.5 -220.5t-39.5 -211.5q0 -116 93 -116q67 0 139 81t128 226q-2 164 31.5 280t89.5 116q57 0 57 -79q0 -54 -24 -130.5t-52 -136.5z" />
    </font>
</defs>
</svg>
